  0
SECTION
  2
HEADER
  9
$ACADVER
  1
AC1015
  9
$ACADMAINTVER
 70
     6
  9
$DWGCODEPAGE
  3
ANSI_1252
  9
$INSBASE
 10
0.0
 20
0.0
 30
0.0
  9
$EXTMIN
 10
-210.0000000000001
 20
0.0
 30
0.0
  9
$EXTMAX
 10
0.0
 20
297.0000000000001
 30
0.0
  9
$LIMMIN
 10
0.0
 20
0.0
  9
$LIMMAX
 10
12.0
 20
9.0
  9
$ORTHOMODE
 70
     0
  9
$REGENMODE
 70
     1
  9
$FILLMODE
 70
     1
  9
$QTEXTMODE
 70
     0
  9
$MIRRTEXT
 70
     1
  9
$LTSCALE
 40
1.0
  9
$ATTMODE
 70
     1
  9
$TEXTSIZE
 40
0.2
  9
$TRACEWID
 40
0.05
  9
$TEXTSTYLE
  7
Standard
  9
$CLAYER
  8
0
  9
$CELTYPE
  6
ByLayer
  9
$CECOLOR
 62
   256
  9
$CELTSCALE
 40
1.0
  9
$DISPSILH
 70
     0
  9
$DIMSCALE
 40
1.0
  9
$DIMASZ
 40
0.18
  9
$DIMEXO
 40
0.0625
  9
$DIMDLI
 40
0.38
  9
$DIMRND
 40
0.0
  9
$DIMDLE
 40
0.0
  9
$DIMEXE
 40
0.18
  9
$DIMTP
 40
0.0
  9
$DIMTM
 40
0.0
  9
$DIMTXT
 40
0.18
  9
$DIMCEN
 40
0.09
  9
$DIMTSZ
 40
0.0
  9
$DIMTOL
 70
     0
  9
$DIMLIM
 70
     0
  9
$DIMTIH
 70
     1
  9
$DIMTOH
 70
     1
  9
$DIMSE1
 70
     0
  9
$DIMSE2
 70
     0
  9
$DIMTAD
 70
     0
  9
$DIMZIN
 70
     0
  9
$DIMBLK
  1

  9
$DIMASO
 70
     1
  9
$DIMSHO
 70
     1
  9
$DIMPOST
  1

  9
$DIMAPOST
  1

  9
$DIMALT
 70
     0
  9
$DIMALTD
 70
     2
  9
$DIMALTF
 40
25.4
  9
$DIMLFAC
 40
1.0
  9
$DIMTOFL
 70
     0
  9
$DIMTVP
 40
0.0
  9
$DIMTIX
 70
     0
  9
$DIMSOXD
 70
     0
  9
$DIMSAH
 70
     0
  9
$DIMBLK1
  1

  9
$DIMBLK2
  1

  9
$DIMSTYLE
  2
Standard
  9
$DIMCLRD
 70
     0
  9
$DIMCLRE
 70
     0
  9
$DIMCLRT
 70
     0
  9
$DIMTFAC
 40
1.0
  9
$DIMGAP
 40
0.09
  9
$DIMJUST
 70
     0
  9
$DIMSD1
 70
     0
  9
$DIMSD2
 70
     0
  9
$DIMTOLJ
 70
     1
  9
$DIMTZIN
 70
     0
  9
$DIMALTZ
 70
     0
  9
$DIMALTTZ
 70
     0
  9
$DIMUPT
 70
     0
  9
$DIMDEC
 70
     4
  9
$DIMTDEC
 70
     4
  9
$DIMALTU
 70
     2
  9
$DIMALTTD
 70
     2
  9
$DIMTXSTY
  7
Standard
  9
$DIMAUNIT
 70
     0
  9
$DIMADEC
 70
     0
  9
$DIMALTRND
 40
0.0
  9
$DIMAZIN
 70
     0
  9
$DIMDSEP
 70
    46
  9
$DIMATFIT
 70
     3
  9
$DIMFRAC
 70
     0
  9
$DIMLDRBLK
  1

  9
$DIMLUNIT
 70
     2
  9
$DIMLWD
 70
    -2
  9
$DIMLWE
 70
    -2
  9
$DIMTMOVE
 70
     0
  9
$LUNITS
 70
     2
  9
$LUPREC
 70
     4
  9
$SKETCHINC
 40
0.1
  9
$FILLETRAD
 40
0.5
  9
$AUNITS
 70
     0
  9
$AUPREC
 70
     0
  9
$MENU
  1
.
  9
$ELEVATION
 40
0.0
  9
$PELEVATION
 40
0.0
  9
$THICKNESS
 40
0.0
  9
$LIMCHECK
 70
     0
  9
$CHAMFERA
 40
0.5
  9
$CHAMFERB
 40
0.5
  9
$CHAMFERC
 40
1.0
  9
$CHAMFERD
 40
0.0
  9
$SKPOLY
 70
     0
  9
$TDCREATE
 40
2456997.441058739
  9
$TDUCREATE
 40
2456997.399392072
  9
$TDUPDATE
 40
2456997.441059097
  9
$TDUUPDATE
 40
2456997.399392431
  9
$TDINDWG
 40
0.0000000116
  9
$TDUSRTIMER
 40
0.0000000116
  9
$USRTIMER
 70
     1
  9
$ANGBASE
 50
0.0
  9
$ANGDIR
 70
     0
  9
$PDMODE
 70
     0
  9
$PDSIZE
 40
0.0
  9
$PLINEWID
 40
0.0
  9
$SPLFRAME
 70
     0
  9
$SPLINETYPE
 70
     6
  9
$SPLINESEGS
 70
     8
  9
$HANDSEED
  5
401
  9
$SURFTAB1
 70
     6
  9
$SURFTAB2
 70
     6
  9
$SURFTYPE
 70
     6
  9
$SURFU
 70
     6
  9
$SURFV
 70
     6
  9
$UCSBASE
  2

  9
$UCSNAME
  2

  9
$UCSORG
 10
0.0
 20
0.0
 30
0.0
  9
$UCSXDIR
 10
1.0
 20
0.0
 30
0.0
  9
$UCSYDIR
 10
0.0
 20
1.0
 30
0.0
  9
$UCSORTHOREF
  2

  9
$UCSORTHOVIEW
 70
     0
  9
$UCSORGTOP
 10
0.0
 20
0.0
 30
0.0
  9
$UCSORGBOTTOM
 10
0.0
 20
0.0
 30
0.0
  9
$UCSORGLEFT
 10
0.0
 20
0.0
 30
0.0
  9
$UCSORGRIGHT
 10
0.0
 20
0.0
 30
0.0
  9
$UCSORGFRONT
 10
0.0
 20
0.0
 30
0.0
  9
$UCSORGBACK
 10
0.0
 20
0.0
 30
0.0
  9
$PUCSBASE
  2

  9
$PUCSNAME
  2

  9
$PUCSORG
 10
0.0
 20
0.0
 30
0.0
  9
$PUCSXDIR
 10
1.0
 20
0.0
 30
0.0
  9
$PUCSYDIR
 10
0.0
 20
1.0
 30
0.0
  9
$PUCSORTHOREF
  2

  9
$PUCSORTHOVIEW
 70
     0
  9
$PUCSORGTOP
 10
0.0
 20
0.0
 30
0.0
  9
$PUCSORGBOTTOM
 10
0.0
 20
0.0
 30
0.0
  9
$PUCSORGLEFT
 10
0.0
 20
0.0
 30
0.0
  9
$PUCSORGRIGHT
 10
0.0
 20
0.0
 30
0.0
  9
$PUCSORGFRONT
 10
0.0
 20
0.0
 30
0.0
  9
$PUCSORGBACK
 10
0.0
 20
0.0
 30
0.0
  9
$USERI1
 70
     0
  9
$USERI2
 70
     0
  9
$USERI3
 70
     0
  9
$USERI4
 70
     0
  9
$USERI5
 70
     0
  9
$USERR1
 40
18.1
  9
$USERR2
 40
0.0
  9
$USERR3
 40
0.0
  9
$USERR4
 40
0.0
  9
$USERR5
 40
0.0
  9
$WORLDVIEW
 70
     1
  9
$SHADEDGE
 70
     3
  9
$SHADEDIF
 70
    70
  9
$TILEMODE
 70
     1
  9
$MAXACTVP
 70
    64
  9
$PINSBASE
 10
0.0
 20
0.0
 30
0.0
  9
$PLIMCHECK
 70
     0
  9
$PEXTMIN
 10
1.00000000000000E+20
 20
1.00000000000000E+20
 30
1.00000000000000E+20
  9
$PEXTMAX
 10
-1.00000000000000E+20
 20
-1.00000000000000E+20
 30
-1.00000000000000E+20
  9
$PLIMMIN
 10
0.0
 20
0.0
  9
$PLIMMAX
 10
12.0
 20
9.0
  9
$UNITMODE
 70
     0
  9
$VISRETAIN
 70
     1
  9
$PLINEGEN
 70
     0
  9
$PSLTSCALE
 70
     1
  9
$TREEDEPTH
 70
  3020
  9
$CMLSTYLE
  2
Standard
  9
$CMLJUST
 70
     0
  9
$CMLSCALE
 40
1.0
  9
$PROXYGRAPHICS
 70
     1
  9
$MEASUREMENT
 70
     1
  9
$CELWEIGHT
370
    -1
  9
$ENDCAPS
280
     0
  9
$JOINSTYLE
280
     0
  9
$LWDISPLAY
290
     0
  9
$INSUNITS
 70
     4
  9
$HYPERLINKBASE
  1

  9
$STYLESHEET
  1

  9
$XEDIT
290
     1
  9
$CEPSNTYPE
380
     0
  9
$PSTYLEMODE
290
     1
  9
$FINGERPRINTGUID
  2
{0FBCB321-98DE-4F1B-9484-0A578E67D8CB}
  9
$VERSIONGUID
  2
{FAEB1C32-E019-11D5-929B-00C0DF256EC4}
  9
$EXTNAMES
290
     1
  9
$PSVPSCALE
 40
0.0
  9
$OLESTARTUP
290
     0
  0
ENDSEC
  0
SECTION
  2
CLASSES
  0
CLASS
  1
ACDBDICTIONARYWDFLT
  2
AcDbDictionaryWithDefault
  3
ObjectDBX Classes
 90
        0
280
     0
281
     0
  0
CLASS
  1
VISUALSTYLE
  2
AcDbVisualStyle
  3
ObjectDBX Classes
 90
     4095
280
     0
281
     0
  0
CLASS
  1
MATERIAL
  2
AcDbMaterial
  3
ObjectDBX Classes
 90
     1153
280
     0
281
     0
  0
CLASS
  1
DICTIONARYVAR
  2
AcDbDictionaryVar
  3
ObjectDBX Classes
 90
        0
280
     0
281
     0
  0
CLASS
  1
ACDBPLACEHOLDER
  2
AcDbPlaceHolder
  3
ObjectDBX Classes
 90
        0
280
     0
281
     0
  0
CLASS
  1
LAYOUT
  2
AcDbLayout
  3
ObjectDBX Classes
 90
        0
280
     0
281
     0
  0
ENDSEC
  0
SECTION
  2
TABLES
  0
TABLE
  2
VPORT
  5
8
330
0
100
AcDbSymbolTable
 70
     1
  0
VPORT
  5
29
330
8
100
AcDbSymbolTableRecord
100
AcDbViewportTableRecord
  2
*Active
 70
     0
 10
0.0
 20
0.0
 11
1.0
 21
1.0
 12
-105.0000000000001
 22
148.5000000000001
 13
0.0
 23
0.0
 14
0.5
 24
0.5
 15
0.5
 25
0.5
 16
0.0
 26
0.0
 36
1.0
 17
0.0
 27
0.0
 37
0.0
 40
326.7000000000002
 41
1.60267857142857
 42
50.0
 43
0.0
 44
0.0
 50
0.0
 51
0.0
 71
     0
 72
   100
 73
     1
 74
     3
 75
     0
 76
     0
 77
     0
 78
     0
281
     0
 65
     1
110
0.0
120
0.0
130
0.0
111
1.0
121
0.0
131
0.0
112
0.0
122
1.0
132
0.0
 79
     0
146
0.0
  0
ENDTAB
  0
TABLE
  2
LTYPE
  5
5
330
0
100
AcDbSymbolTable
 70
     8
  0
LTYPE
  5
14
330
5
100
AcDbSymbolTableRecord
100
AcDbLinetypeTableRecord
  2
ByBlock
 70
     0
  3

 72
    65
 73
     0
 40
0.0
  0
LTYPE
  5
15
330
5
100
AcDbSymbolTableRecord
100
AcDbLinetypeTableRecord
  2
ByLayer
 70
     0
  3

 72
    65
 73
     0
 40
0.0
  0
LTYPE
  5
16
330
5
100
AcDbSymbolTableRecord
100
AcDbLinetypeTableRecord
  2
Continuous
 70
     0
  3
Solid line
 72
    65
 73
     0
 40
0.0
  0
LTYPE
  5
3F
330
5
100
AcDbSymbolTableRecord
100
AcDbLinetypeTableRecord
  2
DASHED
 70
     0
  3
Dashed
 72
    65
 73
     2
 40
15.0
 49
7.0
 74
     0
 49
-8.0
 74
     0
  0
LTYPE
  5
40
330
5
100
AcDbSymbolTableRecord
100
AcDbLinetypeTableRecord
  2
DOTTED
 70
     0
  3
Dotted
 72
    65
 73
     2
 40
1.0
 49
0.0
 74
     0
 49
-1.0
 74
     0
  0
LTYPE
  5
41
330
5
100
AcDbSymbolTableRecord
100
AcDbLinetypeTableRecord
  2
DOT_CENTER
 70
     0
  3
Dot_Center
 72
    65
 73
     4
 40
14.0
 49
12.0
 74
     0
 49
-1.0
 74
     0
 49
0.0
 74
     0
 49
-1.0
 74
     0
  0
LTYPE
  5
42
330
5
100
AcDbSymbolTableRecord
100
AcDbLinetypeTableRecord
  2
LONG_DASHED
 70
     0
  3
Long_Dashed
 72
    65
 73
     2
 40
15.0
 49
10.0
 74
     0
 49
-5.0
 74
     0
  0
LTYPE
  5
43
330
5
100
AcDbSymbolTableRecord
100
AcDbLinetypeTableRecord
  2
DASH_CENTER
 70
     0
  3
Dash_Center
 72
    65
 73
     4
 40
14.0
 49
11.0
 74
     0
 49
-1.0
 74
     0
 49
1.0
 74
     0
 49
-1.0
 74
     0
  0
LTYPE
  5
44
330
5
100
AcDbSymbolTableRecord
100
AcDbLinetypeTableRecord
  2
PHANTOM
 70
     0
  3
Phantom
 72
    65
 73
     6
 40
13.0
 49
10.0
 74
     0
 49
-1.0
 74
     0
 49
0.0
 74
     0
 49
-1.0
 74
     0
 49
0.0
 74
     0
 49
-1.0
 74
     0
  0
LTYPE
  5
45
330
5
100
AcDbSymbolTableRecord
100
AcDbLinetypeTableRecord
  2
CENTER_DASH_DASH
 70
     0
  3
Center_Dash_Dash
 72
    65
 73
     6
 40
14.0
 49
9.0
 74
     0
 49
-1.0
 74
     0
 49
1.0
 74
     0
 49
-1.0
 74
     0
 49
1.0
 74
     0
 49
-1.0
 74
     0
  0
ENDTAB
  0
TABLE
  2
LAYER
  5
2
330
0
100
AcDbSymbolTable
 70
     4
  0
LAYER
  5
10
330
2
100
AcDbSymbolTableRecord
100
AcDbLayerTableRecord
  2
0
 70
     0
 62
     7
  6
Continuous
370
    -3
390
F
  0
LAYER
  5
46
330
2
100
AcDbSymbolTableRecord
100
AcDbLayerTableRecord
  2
1
 70
     0
 62
     7
  6
Continuous
370
    -3
390
F
  0
LAYER
  5
47
330
2
100
AcDbSymbolTableRecord
100
AcDbLayerTableRecord
  2
2
 70
     0
 62
     7
  6
Continuous
370
    -3
390
F
  0
LAYER
  5
48
330
2
100
AcDbSymbolTableRecord
100
AcDbLayerTableRecord
  2
Symbole_TC_020513_DIN_
 70
     0
 62
     7
  6
Continuous
370
    -3
390
F
  0
ENDTAB
  0
TABLE
  2
STYLE
  5
3
330
0
100
AcDbSymbolTable
 70
     5
  0
STYLE
  5
11
330
3
100
AcDbSymbolTableRecord
100
AcDbTextStyleTableRecord
  2
Standard
 70
     0
 40
0.0
 41
1.0
 50
0.0
 71
     0
 42
0.2
  3
txt
  4

  0
STYLE
  5
9D
330
3
100
AcDbSymbolTableRecord
100
AcDbTextStyleTableRecord
  2
CONVERTER_11
 70
     0
 40
0.0
 41
1.2
 50
0.0
 71
     0
 42
0.2
  3
ARIAL.TTF
  4

  0
STYLE
  5
A2
330
3
100
AcDbSymbolTableRecord
100
AcDbTextStyleTableRecord
  2
CONVERTER_12
 70
     0
 40
0.0
 41
1.38
 50
0.0
 71
     0
 42
0.2
  3
ARIAL.TTF
  4

  0
STYLE
  5
340
330
3
100
AcDbSymbolTableRecord
100
AcDbTextStyleTableRecord
  2
CONVERTER_13
 70
     0
 40
0.0
 41
1.6
 50
0.0
 71
     0
 42
0.2
  3
ARIAL.TTF
  4

  0
STYLE
  5
346
330
3
100
AcDbSymbolTableRecord
100
AcDbTextStyleTableRecord
  2
CONVERTER_14
 70
     0
 40
0.0
 41
0.95
 50
0.0
 71
     0
 42
0.2
  3
simplex.shx
  4

  0
ENDTAB
  0
TABLE
  2
VIEW
  5
6
330
0
100
AcDbSymbolTable
 70
     0
  0
ENDTAB
  0
TABLE
  2
UCS
  5
7
330
0
100
AcDbSymbolTable
 70
     0
  0
ENDTAB
  0
TABLE
  2
APPID
  5
9
330
0
100
AcDbSymbolTable
 70
     1
  0
APPID
  5
12
330
9
100
AcDbSymbolTableRecord
100
AcDbRegAppTableRecord
  2
ACAD
 70
     0
  0
ENDTAB
  0
TABLE
  2
DIMSTYLE
  5
A
330
0
100
AcDbSymbolTable
 70
    11
100
AcDbDimStyleTable
  0
DIMSTYLE
105
27
330
A
100
AcDbSymbolTableRecord
100
AcDbDimStyleTableRecord
  2
Standard
 70
     0
178
     0
340
11
  0
DIMSTYLE
105
354
102
{ACAD_REACTORS
330
355
102
}
330
A
100
AcDbSymbolTableRecord
100
AcDbDimStyleTableRecord
  2
ME10_DIM_10
 70
     0
 41
3.0
 42
0.5
 44
1.0
 77
     1
 78
     8
140
3.0
147
2.0
172
     1
173
     1
174
     1
175
     1
176
     2
177
     2
271
     2
178
     4
271
     2
340
346
  0
DIMSTYLE
105
360
102
{ACAD_REACTORS
330
361
102
}
330
A
100
AcDbSymbolTableRecord
100
AcDbDimStyleTableRecord
  2
ME10_DIM_11
 70
     0
 41
3.0
 42
0.5
 44
1.0
 77
     1
 78
     8
140
3.0
147
2.0
172
     1
173
     1
174
     1
175
     1
176
     2
177
     2
271
     2
178
     4
271
     2
340
346
  0
DIMSTYLE
105
36C
102
{ACAD_REACTORS
330
36D
102
}
330
A
100
AcDbSymbolTableRecord
100
AcDbDimStyleTableRecord
  2
ME10_DIM_12
 70
     0
 41
3.0
 42
0.5
 44
1.0
 77
     1
 78
     8
140
3.0
147
2.0
172
     1
173
     1
174
     1
175
     1
176
     2
177
     2
271
     2
178
     4
271
     2
340
346
  0
DIMSTYLE
105
378
102
{ACAD_REACTORS
330
379
102
}
330
A
100
AcDbSymbolTableRecord
100
AcDbDimStyleTableRecord
  2
ME10_DIM_13
 70
     0
 41
3.0
 42
0.5
 44
1.0
 77
     1
 78
     8
140
3.0
147
2.0
172
     1
173
     1
174
     1
175
     1
176
     2
177
     2
271
     2
178
     4
271
     2
340
346
  0
DIMSTYLE
105
383
102
{ACAD_REACTORS
330
384
102
}
330
A
100
AcDbSymbolTableRecord
100
AcDbDimStyleTableRecord
  2
ME10_DIM_14
 70
     0
 41
3.0
 42
0.5
 44
1.0
 77
     1
 78
     8
140
3.0
147
2.0
172
     1
173
     1
174
     1
175
     1
176
     2
177
     2
271
     2
178
     4
271
     2
340
346
  0
DIMSTYLE
105
38E
102
{ACAD_REACTORS
330
38F
102
}
330
A
100
AcDbSymbolTableRecord
100
AcDbDimStyleTableRecord
  2
ME10_DIM_15
 70
     0
 41
3.0
 42
0.5
 44
1.0
 77
     1
 78
     8
140
3.0
147
2.0
172
     1
173
     1
174
     1
175
     1
176
     2
177
     2
271
     2
178
     4
271
     2
340
346
  0
DIMSTYLE
105
39A
102
{ACAD_REACTORS
330
39B
102
}
330
A
100
AcDbSymbolTableRecord
100
AcDbDimStyleTableRecord
  2
ME10_DIM_16
 70
     0
 41
3.0
 42
0.5
 44
1.0
 77
     1
 78
     8
140
3.0
147
2.0
172
     1
173
     1
174
     1
175
     1
176
     2
177
     2
271
     2
178
     4
271
     2
340
346
  0
DIMSTYLE
105
3A5
102
{ACAD_REACTORS
330
3A6
102
}
330
A
100
AcDbSymbolTableRecord
100
AcDbDimStyleTableRecord
  2
ME10_DIM_17
 70
     0
 41
3.0
 42
0.5
 44
1.0
 77
     1
 78
     8
140
3.0
147
2.0
172
     1
173
     1
174
     1
175
     1
176
     2
177
     2
271
     2
178
     4
271
     2
340
346
  0
DIMSTYLE
105
3B2
102
{ACAD_REACTORS
330
3B3
102
}
330
A
100
AcDbSymbolTableRecord
100
AcDbDimStyleTableRecord
  2
ME10_DIM_18
 70
     0
 41
3.0
 42
0.5
 44
1.0
 77
     1
 78
     8
140
3.0
147
2.0
172
     1
173
     1
174
     1
175
     1
176
     2
177
     2
271
     2
178
     4
271
     2
340
346
  0
DIMSTYLE
105
3BD
102
{ACAD_REACTORS
330
3BE
102
}
330
A
100
AcDbSymbolTableRecord
100
AcDbDimStyleTableRecord
  2
ME10_DIM_19
 70
     0
 41
3.0
 42
0.5
 44
1.0
 77
     1
 78
     8
140
3.0
147
2.0
172
     1
173
     1
174
     1
175
     1
176
     2
177
     2
271
     2
178
     4
271
     2
340
346
  0
ENDTAB
  0
TABLE
  2
BLOCK_RECORD
  5
1
330
0
100
AcDbSymbolTable
 70
    15
  0
BLOCK_RECORD
  5
1F
330
1
100
AcDbSymbolTableRecord
100
AcDbBlockTableRecord
  2
*Model_Space
340
22
  0
BLOCK_RECORD
  5
1B
330
1
100
AcDbSymbolTableRecord
100
AcDbBlockTableRecord
  2
*Paper_Space
340
1E
  0
BLOCK_RECORD
  5
23
330
1
100
AcDbSymbolTableRecord
100
AcDbBlockTableRecord
  2
*Paper_Space0
340
26
  0
BLOCK_RECORD
  5
49
330
1
100
AcDbSymbolTableRecord
100
AcDbBlockTableRecord
  2
_formato_A4
340
0
102
{BLKREFS
331
4D
102
}
  0
BLOCK_RECORD
  5
4C
330
1
100
AcDbSymbolTableRecord
100
AcDbBlockTableRecord
  2
A4
340
0
102
{BLKREFS
331
50
102
}
  0
BLOCK_RECORD
  5
34A
330
1
100
AcDbSymbolTableRecord
100
AcDbBlockTableRecord
  2
*D3
340
0
  0
BLOCK_RECORD
  5
356
330
1
100
AcDbSymbolTableRecord
100
AcDbBlockTableRecord
  2
*D4
340
0
  0
BLOCK_RECORD
  5
362
330
1
100
AcDbSymbolTableRecord
100
AcDbBlockTableRecord
  2
*D5
340
0
  0
BLOCK_RECORD
  5
36E
330
1
100
AcDbSymbolTableRecord
100
AcDbBlockTableRecord
  2
*D6
340
0
  0
BLOCK_RECORD
  5
37A
330
1
100
AcDbSymbolTableRecord
100
AcDbBlockTableRecord
  2
*D7
340
0
  0
BLOCK_RECORD
  5
385
330
1
100
AcDbSymbolTableRecord
100
AcDbBlockTableRecord
  2
*D8
340
0
  0
BLOCK_RECORD
  5
390
330
1
100
AcDbSymbolTableRecord
100
AcDbBlockTableRecord
  2
*D9
340
0
  0
BLOCK_RECORD
  5
39C
330
1
100
AcDbSymbolTableRecord
100
AcDbBlockTableRecord
  2
*D10
340
0
  0
BLOCK_RECORD
  5
3A7
330
1
100
AcDbSymbolTableRecord
100
AcDbBlockTableRecord
  2
*D11
340
0
  0
BLOCK_RECORD
  5
3B4
330
1
100
AcDbSymbolTableRecord
100
AcDbBlockTableRecord
  2
*D12
340
0
  0
BLOCK_RECORD
  5
3BF
330
1
100
AcDbSymbolTableRecord
100
AcDbBlockTableRecord
  2
*D13
340
0
102
{BLKREFS
331
3C7
102
}
  0
BLOCK_RECORD
  5
3C8
330
1
100
AcDbSymbolTableRecord
100
AcDbBlockTableRecord
  2
*D14
340
0
102
{BLKREFS
331
3D0
102
}
  0
ENDTAB
  0
ENDSEC
  0
SECTION
  2
BLOCKS
  0
BLOCK
  5
20
330
1F
100
AcDbEntity
  8
0
100
AcDbBlockBegin
  2
*Model_Space
 70
     0
 10
0.0
 20
0.0
 30
0.0
  3
*Model_Space
  1

  0
ENDBLK
  5
21
330
1F
100
AcDbEntity
  8
0
100
AcDbBlockEnd
  0
BLOCK
  5
1C
330
1B
100
AcDbEntity
 67
     1
  8
0
100
AcDbBlockBegin
  2
*Paper_Space
 70
     0
 10
0.0
 20
0.0
 30
0.0
  3
*Paper_Space
  1

  0
ENDBLK
  5
1D
330
1B
100
AcDbEntity
 67
     1
  8
0
100
AcDbBlockEnd
  0
BLOCK
  5
24
330
23
100
AcDbEntity
  8
0
100
AcDbBlockBegin
  2
*Paper_Space0
 70
     0
 10
0.0
 20
0.0
 30
0.0
  3
*Paper_Space0
  1

  0
ENDBLK
  5
25
330
23
100
AcDbEntity
  8
0
100
AcDbBlockEnd
  0
BLOCK
  5
4A
330
49
100
AcDbEntity
  8
0
100
AcDbBlockBegin
  2
_formato_A4
 70
     0
 10
0.0
 20
0.0
 30
0.0
  3
_formato_A4
  1

  0
LINE
  5
51
330
49
100
AcDbEntity
  8
1
  6
Continuous
 62
     7
100
AcDbLine
 10
-189.0
 20
20.0
 30
0.0
 11
-5.0
 21
20.0
 31
0.0
  0
LINE
  5
52
330
49
100
AcDbEntity
  8
1
  6
Continuous
 62
     7
100
AcDbLine
 10
-189.0
 20
4.99999999999989
 30
0.0
 11
-5.0
 21
4.99999999999989
 31
0.0
  0
LINE
  5
53
330
49
100
AcDbEntity
  8
1
  6
Continuous
 62
     7
100
AcDbLine
 10
-163.9999999999999
 20
35.0
 30
0.0
 11
-163.9999999999999
 21
40.0
 31
0.0
  0
LINE
  5
54
330
49
100
AcDbEntity
  8
1
  6
Continuous
 62
     7
100
AcDbLine
 10
-182.0
 20
35.0
 30
0.0
 11
-182.0
 21
40.0
 31
0.0
  0
LINE
  5
55
330
49
100
AcDbEntity
  8
1
  6
Continuous
 62
     7
100
AcDbLine
 10
-189.0
 20
40.0
 30
0.0
 11
-5.0
 21
40.0
 31
0.0
  0
LINE
  5
56
330
49
100
AcDbEntity
  8
1
  6
Continuous
 62
     7
100
AcDbLine
 10
-163.9999999999999
 20
30.0
 30
0.0
 11
-163.9999999999999
 21
35.0
 31
0.0
  0
LINE
  5
57
330
49
100
AcDbEntity
  8
1
  6
Continuous
 62
     7
100
AcDbLine
 10
-182.0
 20
30.0
 30
0.0
 11
-182.0
 21
35.0
 31
0.0
  0
LINE
  5
58
330
49
100
AcDbEntity
  8
1
  6
Continuous
 62
     7
100
AcDbLine
 10
-189.0
 20
35.0
 30
0.0
 11
-5.0
 21
35.0
 31
0.0
  0
LINE
  5
59
330
49
100
AcDbEntity
  8
1
  6
Continuous
 62
     7
100
AcDbLine
 10
-163.9999999999999
 20
25.0
 30
0.0
 11
-163.9999999999999
 21
30.0
 31
0.0
  0
LINE
  5
5A
330
49
100
AcDbEntity
  8
1
  6
Continuous
 62
     7
100
AcDbLine
 10
-182.0
 20
25.0
 30
0.0
 11
-182.0
 21
30.0
 31
0.0
  0
LINE
  5
5B
330
49
100
AcDbEntity
  8
1
  6
Continuous
 62
     7
100
AcDbLine
 10
-189.0
 20
30.0
 30
0.0
 11
-5.0
 21
30.0
 31
0.0
  0
LINE
  5
5C
330
49
100
AcDbEntity
  8
1
  6
Continuous
 62
     7
100
AcDbLine
 10
-163.9999999999999
 20
20.0
 30
0.0
 11
-163.9999999999999
 21
25.0
 31
0.0
  0
LINE
  5
5D
330
49
100
AcDbEntity
  8
1
  6
Continuous
 62
     7
100
AcDbLine
 10
-182.0
 20
20.0
 30
0.0
 11
-182.0
 21
25.0
 31
0.0
  0
LINE
  5
5E
330
49
100
AcDbEntity
  8
1
  6
Continuous
 62
     7
100
AcDbLine
 10
-189.0
 20
25.0
 30
0.0
 11
-5.0
 21
25.0
 31
0.0
  0
LINE
  5
5F
102
{ACAD_REACTORS
330
A4
102
}
330
49
100
AcDbEntity
  8
1
  6
Continuous
 62
     7
100
AcDbLine
 10
-14.15712516009415
 20
10.55800208038033
 30
0.0
 11
-15.49045849342747
 21
9.78877131114973
 31
0.0
  0
LINE
  5
60
102
{ACAD_REACTORS
330
A4
102
}
330
49
100
AcDbEntity
  8
1
  6
Continuous
 62
     7
100
AcDbLine
 10
-15.32369931125726
 20
10.65463653264794
 30
0.0
 11
-14.49027346242048
 21
11.13545913774624
 31
0.0
  0
LINE
  5
61
102
{ACAD_REACTORS
330
A4
102
}
330
49
100
AcDbEntity
  8
1
  6
Continuous
 62
     7
100
AcDbLine
 10
-15.32369931125726
 20
12.16666666666663
 30
0.0
 11
-15.32369931125726
 21
10.65463653264794
 31
0.0
  0
LINE
  5
62
102
{ACAD_REACTORS
330
A4
102
}
330
49
100
AcDbEntity
  8
1
  6
Continuous
 62
     7
100
AcDbLine
 10
-14.32369931125726
 20
12.16666666666663
 30
0.0
 11
-15.32369931125726
 21
12.16666666666663
 31
0.0
  0
LINE
  5
63
102
{ACAD_REACTORS
330
A4
102
}
330
49
100
AcDbEntity
  8
1
  6
Continuous
 62
     7
100
AcDbLine
 10
-15.32369931125726
 20
12.83333333333326
 30
0.0
 11
-14.32369931125726
 21
12.83333333333326
 31
0.0
  0
LINE
  5
64
102
{ACAD_REACTORS
330
A4
102
}
330
49
100
AcDbEntity
  8
1
  6
Continuous
 62
     7
100
AcDbLine
 10
-15.32369931125726
 20
14.34536346735195
 30
0.0
 11
-15.32369931125726
 21
12.83333333333326
 31
0.0
  0
LINE
  5
65
102
{ACAD_REACTORS
330
A4
102
}
330
49
100
AcDbEntity
  8
1
  6
Continuous
 62
     7
100
AcDbLine
 10
-14.49027346242048
 20
13.86454086225376
 30
0.0
 11
-15.32369931125726
 21
14.34536346735195
 31
0.0
  0
LINE
  5
66
102
{ACAD_REACTORS
330
A4
102
}
330
49
100
AcDbEntity
  8
1
  6
Continuous
 62
     7
100
AcDbLine
 10
-15.49045849342747
 20
15.21122868885027
 30
0.0
 11
-14.15712516009415
 21
14.44199791961944
 31
0.0
  0
LINE
  5
67
102
{ACAD_REACTORS
330
A5
102
}
330
49
100
AcDbEntity
  8
1
  6
Continuous
 62
     7
100
AcDbLine
 10
-22.65703264459069
 20
10.84673060906323
 30
0.0
 11
-22.65703264459069
 21
14.15326939093666
 31
0.0
  0
LINE
  5
68
102
{ACAD_REACTORS
330
A5
102
}
330
49
100
AcDbEntity
  8
1
  6
Continuous
 62
     7
100
AcDbLine
 10
-21.99036597792406
 20
11.0392519172633
 30
0.0
 11
-21.99036597792406
 21
10.84673060906323
 31
0.0
  0
LINE
  5
69
102
{ACAD_REACTORS
330
A5
102
}
330
49
100
AcDbEntity
  8
1
  6
Continuous
 62
     7
100
AcDbLine
 10
-21.99036597792406
 20
14.15326939093666
 30
0.0
 11
-21.99036597792406
 21
11.0392519172633
 31
0.0
  0
LINE
  5
6A
102
{ACAD_REACTORS
330
A6
102
}
330
49
100
AcDbEntity
  8
1
  6
Continuous
 62
     7
100
AcDbLine
 10
-18.8236067957539
 20
8.44261746499581
 30
0.0
 11
-20.99018094691701
 21
9.69256409066691
 31
0.0
  0
LINE
  5
6B
102
{ACAD_REACTORS
330
A6
102
}
330
49
100
AcDbEntity
  8
1
  6
Continuous
 62
     7
100
AcDbLine
 10
-20.65703264459069
 20
10.2700211480327
 30
0.0
 11
-18.49045849342747
 21
9.0200745223616
 31
0.0
  0
LINE
  5
6C
102
{ACAD_REACTORS
330
A6
102
}
330
49
100
AcDbEntity
  8
1
  6
Continuous
 62
     7
100
AcDbLine
 10
-20.65703264459069
 20
14.92250016016737
 30
0.0
 11
-20.65703264459069
 21
10.2700211480327
 31
0.0
  0
LINE
  5
6D
102
{ACAD_REACTORS
330
A6
102
}
330
49
100
AcDbEntity
  8
1
  6
Continuous
 62
     7
100
AcDbLine
 10
-21.32369931125726
 20
10.27002114803258
 30
0.0
 11
-21.32369931125726
 21
14.92250016016737
 31
0.0
  0
LINE
  5
6E
102
{ACAD_REACTORS
330
A7
102
}
330
49
100
AcDbEntity
  8
1
  6
Continuous
 62
     7
100
AcDbLine
 10
-17.1514663282141
 20
15.86370041827229
 30
0.0
 11
-18.32369931125726
 21
13.83333333333326
 31
0.0
  0
LINE
  5
6F
102
{ACAD_REACTORS
330
A7
102
}
330
49
100
AcDbEntity
  8
1
  6
Continuous
 62
     7
100
AcDbLine
 10
-16.65703264459069
 20
9.3082690706018
 30
0.0
 11
-16.65703264459069
 21
15.73121731203457
 31
0.0
  0
LINE
  5
70
102
{ACAD_REACTORS
330
A7
102
}
330
49
100
AcDbEntity
  8
1
  6
Continuous
 62
     7
100
AcDbLine
 10
-17.32369931125726
 20
12.5
 30
0.0
 11
-17.32369931125726
 21
9.3082690706018
 31
0.0
  0
LINE
  5
71
102
{ACAD_REACTORS
330
A7
102
}
330
49
100
AcDbEntity
  8
1
  6
Continuous
 62
     7
100
AcDbLine
 10
-19.32369931125726
 20
10.84758507263291
 30
0.0
 11
-19.32369931125726
 21
12.5
 31
0.0
  0
LINE
  5
72
102
{ACAD_REACTORS
330
A7
102
}
330
49
100
AcDbEntity
  8
1
  6
Continuous
 62
     7
100
AcDbLine
 10
-19.99036597792406
 20
12.5
 30
0.0
 11
-19.99036597792406
 21
10.84758507263291
 31
0.0
  0
LINE
  5
73
102
{ACAD_REACTORS
330
A7
102
}
330
49
100
AcDbEntity
  8
1
  6
Continuous
 62
     7
100
AcDbLine
 10
-19.49593229430059
 20
15.86370041827229
 30
0.0
 11
-18.32369931125726
 21
13.83333333333326
 31
0.0
  0
LINE
  5
74
102
{ACAD_REACTORS
330
A7
102
}
330
49
100
AcDbEntity
  8
1
  6
Continuous
 62
     7
100
AcDbLine
 10
-19.99036597792406
 20
12.5
 30
0.0
 11
-19.99036597792406
 21
15.73121731203457
 31
0.0
  0
LINE
  5
75
330
49
100
AcDbEntity
  8
1
  6
Continuous
 62
     7
100
AcDbLine
 10
-18.32369931125726
 20
7.5
 30
0.0
 11
-26.74013458639888
 21
12.35563573565855
 31
0.0
  0
LINE
  5
76
330
49
100
AcDbEntity
  8
1
  6
Continuous
 62
     7
100
AcDbLine
 10
-9.90726403611586
 20
12.35563573565855
 30
0.0
 11
-18.32369931125726
 21
7.5
 31
0.0
  0
LINE
  5
77
330
49
100
AcDbEntity
  8
1
  6
Continuous
 62
     7
100
AcDbLine
 10
-18.32369931125726
 20
17.5
 30
0.0
 11
-9.90726403611586
 21
12.64436426434133
 31
0.0
  0
LINE
  5
78
330
49
100
AcDbEntity
  8
1
  6
Continuous
 62
     7
100
AcDbLine
 10
-26.74013458639888
 20
12.64436426434133
 30
0.0
 11
-18.32369931125726
 21
17.5
 31
0.0
  0
LINE
  5
79
102
{ACAD_REACTORS
330
A7
102
}
330
49
100
AcDbEntity
  8
1
  6
Continuous
 62
     7
100
AcDbLine
 10
-19.32369931125726
 20
14.23205080756884
 30
0.0
 11
-19.32369931125726
 21
12.5
 31
0.0
  0
LINE
  5
7A
102
{ACAD_REACTORS
330
A7
102
}
330
49
100
AcDbEntity
  8
1
  6
Continuous
 62
     7
100
AcDbLine
 10
-18.46803687855476
 20
12.75
 30
0.0
 11
-19.32369931125726
 21
14.23205080756884
 31
0.0
  0
LINE
  5
7B
102
{ACAD_REACTORS
330
A7
102
}
330
49
100
AcDbEntity
  8
1
  6
Continuous
 62
     7
100
AcDbLine
 10
-17.32369931125726
 20
14.23205080756884
 30
0.0
 11
-18.17936174395987
 21
12.75
 31
0.0
  0
LINE
  5
7C
102
{ACAD_REACTORS
330
A7
102
}
330
49
100
AcDbEntity
  8
1
  6
Continuous
 62
     7
100
AcDbLine
 10
-17.32369931125726
 20
12.5
 30
0.0
 11
-17.32369931125726
 21
14.23205080756884
 31
0.0
  0
LINE
  5
7D
102
{ACAD_REACTORS
330
A4
102
}
330
49
100
AcDbEntity
  8
1
  6
Continuous
 62
     7
100
AcDbLine
 10
-15.990365977924
 20
10.07749983983263
 30
0.0
 11
-15.990365977924
 21
14.92250016016737
 31
0.0
  0
LINE
  5
7E
330
49
100
AcDbEntity
  8
1
  6
Continuous
 62
     7
100
AcDbLine
 10
-189.0
 20
292.0000000000001
 30
0.0
 11
-189.0
 21
4.99999999999989
 31
0.0
  0
LINE
  5
7F
330
49
100
AcDbEntity
  8
1
  6
Continuous
 62
     7
100
AcDbLine
 10
-5.0
 20
292.0000000000001
 30
0.0
 11
-189.0
 21
292.0000000000001
 31
0.0
  0
LINE
  5
80
330
49
100
AcDbEntity
  8
1
  6
Continuous
 62
     7
100
AcDbLine
 10
-5.0
 20
4.99999999999989
 30
0.0
 11
-5.0
 21
292.0000000000001
 31
0.0
  0
LINE
  5
81
330
49
100
AcDbEntity
  8
1
  6
Continuous
 62
     7
100
AcDbLine
 10
0.0
 20
297.0000000000001
 30
0.0
 11
-210.0000000000001
 21
297.0000000000001
 31
0.0
  0
LINE
  5
82
330
49
100
AcDbEntity
  8
1
  6
Continuous
 62
     7
100
AcDbLine
 10
-210.0000000000001
 20
297.0000000000001
 30
0.0
 11
-210.0000000000001
 21
0.0
 31
0.0
  0
LINE
  5
83
330
49
100
AcDbEntity
  8
1
  6
Continuous
 62
     7
100
AcDbLine
 10
-210.0000000000001
 20
0.0
 30
0.0
 11
0.0
 21
0.0
 31
0.0
  0
LINE
  5
84
330
49
100
AcDbEntity
  8
1
  6
Continuous
 62
     7
100
AcDbLine
 10
0.0
 20
0.0
 30
0.0
 11
0.0
 21
297.0000000000001
 31
0.0
  0
LINE
  5
85
330
49
100
AcDbEntity
  8
1
  6
Continuous
 62
     7
100
AcDbLine
 10
-210.0000000000001
 20
148.4999999999997
 30
0.0
 11
-195.0000000000001
 21
148.4999999999997
 31
0.0
  0
LINE
  5
86
330
49
100
AcDbEntity
  8
1
  6
Continuous
 62
     7
100
AcDbLine
 10
-189.0
 20
9.99999999999989
 30
0.0
 11
-159.0
 21
9.99999999999989
 31
0.0
  0
LINE
  5
87
330
49
100
AcDbEntity
  8
1
  6
Continuous
 62
     7
100
AcDbLine
 10
-159.0
 20
20.0
 30
0.0
 11
-159.0
 21
5.0
 31
0.0
  0
LINE
  5
88
330
49
100
AcDbEntity
  8
1
  6
Continuous
 62
     7
100
AcDbLine
 10
-31.64739862251457
 20
20.0
 30
0.0
 11
-31.64739862251457
 21
5.0
 31
0.0
  0
LINE
  5
89
330
49
100
AcDbEntity
  8
1
  6
Continuous
 62
     7
100
AcDbLine
 10
-49.0
 20
20.0
 30
0.0
 11
-49.0
 21
5.0
 31
0.0
  0
LINE
  5
8A
330
49
100
AcDbEntity
  8
1
  6
Continuous
 62
     7
100
AcDbLine
 10
-189.0
 20
20.0
 30
0.0
 11
-189.0
 21
4.99999999999989
 31
0.0
  0
LINE
  5
8B
330
49
100
AcDbEntity
  8
1
  6
Continuous
 62
     7
100
AcDbLine
 10
-189.0
 20
14.99999999999989
 30
0.0
 11
-159.0
 21
14.99999999999989
 31
0.0
  0
ARC
  5
8C
102
{ACAD_REACTORS
330
A4
102
}
330
49
100
AcDbEntity
  8
1
  6
Continuous
 62
     7
100
AcDbCircle
 10
-14.32369931125726
 20
10.84673060906323
 30
0.0
 40
0.3333333333333198
100
AcDbArc
 50
299.9816393688342
 51
119.9816393688413
  0
ARC
  5
8D
102
{ACAD_REACTORS
330
A4
102
}
330
49
100
AcDbEntity
  8
1
  6
Continuous
 62
     7
100
AcDbCircle
 10
-14.32369931125726
 20
12.5
 30
0.0
 40
0.3333333333333695
100
AcDbArc
 50
270.0
 51
90.0
  0
ARC
  5
8E
102
{ACAD_REACTORS
330
A4
102
}
330
49
100
AcDbEntity
  8
1
  6
Continuous
 62
     7
100
AcDbCircle
 10
-14.32369931125726
 20
14.15326939093666
 30
0.0
 40
0.3333333333333773
100
AcDbArc
 50
240.0183606311493
 51
60.01836063115558
  0
ARC
  5
8F
102
{ACAD_REACTORS
330
A5
102
}
330
49
100
AcDbEntity
  8
1
  6
Continuous
 62
     7
100
AcDbCircle
 10
-22.32369931125726
 20
10.84673060906323
 30
0.0
 40
0.3333333333334281
100
AcDbArc
 50
180.0
 51
0.0
  0
ARC
  5
90
102
{ACAD_REACTORS
330
A5
102
}
330
49
100
AcDbEntity
  8
1
  6
Continuous
 62
     7
100
AcDbCircle
 10
-22.32369931125726
 20
14.15326939093666
 30
0.0
 40
0.3333333333332007
100
AcDbArc
 50
0.0
 51
180.0
  0
ARC
  5
91
102
{ACAD_REACTORS
330
A6
102
}
330
49
100
AcDbEntity
  8
1
  6
Continuous
 62
     7
100
AcDbCircle
 10
-18.65703264459069
 20
8.7313459936787
 30
0.0
 40
0.3333333333333673
100
AcDbArc
 50
240.0183606311504
 51
60.01836063114937
  0
ARC
  5
92
102
{ACAD_REACTORS
330
A6
102
}
330
49
100
AcDbEntity
  8
1
  6
Continuous
 62
     7
100
AcDbCircle
 10
-20.99036597792406
 20
14.92250016016737
 30
0.0
 40
0.3333333333333712
100
AcDbArc
 50
0.0
 51
180.0
  0
ARC
  5
93
102
{ACAD_REACTORS
330
A7
102
}
330
49
100
AcDbEntity
  8
1
  6
Continuous
 62
     7
100
AcDbCircle
 10
-16.921998857066
 20
15.73121731203457
 30
0.0
 40
0.2649662124753114
100
AcDbArc
 50
0.0
 51
149.9999999999808
  0
ARC
  5
94
102
{ACAD_REACTORS
330
A7
102
}
330
49
100
AcDbEntity
  8
1
  6
Continuous
 62
     7
100
AcDbCircle
 10
-16.990365977924
 20
9.3082690706018
 30
0.0
 40
0.3333333333332611
100
AcDbArc
 50
180.0
 51
0.0
  0
ARC
  5
95
102
{ACAD_REACTORS
330
A7
102
}
330
49
100
AcDbEntity
  8
1
  6
Continuous
 62
     7
100
AcDbCircle
 10
-19.65703264459069
 20
10.84758507263291
 30
0.0
 40
0.3333333333333712
100
AcDbArc
 50
180.0
 51
0.0
  0
ARC
  5
96
102
{ACAD_REACTORS
330
A7
102
}
330
49
100
AcDbEntity
  8
1
  6
Continuous
 62
     7
100
AcDbCircle
 10
-19.7253997654488
 20
15.73121731203457
 30
0.0
 40
0.2649662124753808
100
AcDbArc
 50
30.00000000000731
 51
180.0
  0
ARC
  5
97
102
{ACAD_REACTORS
330
A4
102
}
330
49
100
AcDbEntity
  8
1
  6
Continuous
 62
     7
100
AcDbCircle
 10
-15.65703264459069
 20
10.07749983983263
 30
0.0
 40
0.3333333333333108
100
AcDbArc
 50
180.0
 51
299.9816393688506
  0
ARC
  5
98
102
{ACAD_REACTORS
330
A4
102
}
330
49
100
AcDbEntity
  8
1
  6
Continuous
 62
     7
100
AcDbCircle
 10
-15.65703264459069
 20
14.92250016016737
 30
0.0
 40
0.3333333333333749
100
AcDbArc
 50
60.01836063114941
 51
180.0
  0
ARC
  5
99
330
49
100
AcDbEntity
  8
1
  6
Continuous
 62
     7
100
AcDbCircle
 10
-9.99055111169736
 20
12.5
 30
0.0
 40
0.1666666666666302
100
AcDbArc
 50
299.9816393688164
 51
60.01836063116308
  0
ARC
  5
9A
330
49
100
AcDbEntity
  8
1
  6
Continuous
 62
     7
100
AcDbCircle
 10
-26.65684751081716
 20
12.5
 30
0.0
 40
0.1666666666666407
100
AcDbArc
 50
119.9816393689046
 51
240.0183606311158
  0
ARC
  5
9B
102
{ACAD_REACTORS
330
A6
102
}
330
49
100
AcDbEntity
  8
1
  6
Continuous
 62
     7
100
AcDbCircle
 10
-20.65703264459069
 20
10.2700211480327
 30
0.0
 40
0.6666666666665719
100
AcDbArc
 50
180.0000000000104
 51
240.018360631158
  0
ARC
  5
9C
102
{ACAD_REACTORS
330
A7
102
}
330
49
100
AcDbEntity
  8
1
  6
Continuous
 62
     7
100
AcDbCircle
 10
-18.32369931125726
 20
12.83333333333326
 30
0.0
 40
0.166666666666709
100
AcDbArc
 50
209.9999999999622
 51
330.0000000000195
  0
MTEXT
  5
9E
330
49
100
AcDbEntity
  8
1
 62
     7
100
AcDbMText
 10
-40.32369931125726
 20
16.26063942075598
 30
0.0
 40
3.0
 41
0.0
 71
     5
 72
     1
  1
Scale
  7
CONVERTER_11
 73
     1
 44
1.32052821128451
  0
MTEXT
  5
9F
330
49
100
AcDbEntity
  8
1
 62
     7
100
AcDbMText
 10
-188.0
 20
7.49999999999989
 30
0.0
 40
3.0
 41
0.0
 71
     4
 72
     1
  1
Sign.
  7
CONVERTER_11
 73
     1
 44
1.32052821128451
  0
MTEXT
  5
A0
330
49
100
AcDbEntity
  8
1
 62
     7
100
AcDbMText
 10
-188.0
 20
12.49999999999989
 30
0.0
 40
3.0
 41
0.0
 71
     4
 72
     1
  1
Date
  7
CONVERTER_11
 73
     1
 44
1.32052821128451
  0
MTEXT
  5
A1
330
49
100
AcDbEntity
  8
1
 62
     7
100
AcDbMText
 10
-194.0000000000001
 20
151.4999999999997
 30
0.0
 40
4.0
 41
0.0
 71
     5
 72
     1
  1
Diritti riservati      All rights reserved
  7
CONVERTER_11
 11
0.0
 21
1.0
 31
0.0
 73
     1
 44
1.32052821128451
  0
MTEXT
  5
A3
330
49
100
AcDbEntity
  8
1
 62
     7
100
AcDbMText
 10
-174.0
 20
17.49999999999989
 30
0.0
 40
2.5
 41
0.0
 71
     5
 72
     1
  1
dimensions in mm
  7
CONVERTER_12
 73
     1
 44
0.60024009603842
  0
HATCH
  5
A4
330
49
100
AcDbEntity
  8
1
  6
Continuous
 62
     7
100
AcDbHatch
 10
0.0
 20
0.0
 30
0.0
210
0.0
220
0.0
230
1.0
  2
SOLID
 70
     1
 71
     1
 91
        1
 92
        1
 93
       14
 72
     2
 10
-15.65703264459069
 20
14.92250016016737
 40
0.3333333333333749
 50
60.01836063114941
 51
180.0
 73
     1
 72
     1
 10
-15.990365977924
 20
14.92250016016737
 11
-15.990365977924
 21
10.07749983983263
 72
     2
 10
-15.65703264459069
 20
10.07749983983263
 40
0.3333333333333108
 50
180.0
 51
299.9816393688506
 73
     1
 72
     1
 10
-15.49045849342747
 20
9.78877131114973
 11
-14.15712516009415
 21
10.55800208038033
 72
     2
 10
-14.32369931125726
 20
10.84673060906323
 40
0.3333333333333198
 50
299.9816393688342
 51
479.9816393688413
 73
     1
 72
     1
 10
-14.49027346242048
 20
11.13545913774624
 11
-15.32369931125726
 21
10.65463653264794
 72
     1
 10
-15.32369931125726
 20
10.65463653264794
 11
-15.32369931125726
 21
12.16666666666663
 72
     1
 10
-15.32369931125726
 20
12.16666666666663
 11
-14.32369931125726
 21
12.16666666666663
 72
     2
 10
-14.32369931125726
 20
12.5
 40
0.3333333333333695
 50
270.0
 51
450.0
 73
     1
 72
     1
 10
-14.32369931125726
 20
12.83333333333326
 11
-15.32369931125726
 21
12.83333333333326
 72
     1
 10
-15.32369931125726
 20
12.83333333333326
 11
-15.32369931125726
 21
14.34536346735195
 72
     1
 10
-15.32369931125726
 20
14.34536346735195
 11
-14.49027346242048
 21
13.86454086225376
 72
     2
 10
-14.32369931125726
 20
14.15326939093666
 40
0.3333333333333773
 50
240.0183606311493
 51
420.0183606311556
 73
     1
 72
     1
 10
-14.15712516009415
 20
14.44199791961944
 11
-15.49045849342747
 21
15.21122868885027
 97
       14
330
8E
330
65
330
64
330
63
330
8D
330
62
330
61
330
60
330
8C
330
5F
330
97
330
7D
330
98
330
66
 75
     0
 76
     1
 98
        1
 10
0.0
 20
0.0
  0
HATCH
  5
A5
330
49
100
AcDbEntity
  8
1
  6
Continuous
 62
     7
100
AcDbHatch
 10
0.0
 20
0.0
 30
0.0
210
0.0
220
0.0
230
1.0
  2
SOLID
 70
     1
 71
     1
 91
        1
 92
        1
 93
        5
 72
     2
 10
-22.32369931125726
 20
14.15326939093666
 40
0.3333333333332007
 50
0.0
 51
180.0
 73
     1
 72
     1
 10
-22.65703264459069
 20
14.15326939093666
 11
-22.65703264459069
 21
10.84673060906323
 72
     2
 10
-22.32369931125726
 20
10.84673060906323
 40
0.3333333333334281
 50
180.0
 51
360.0
 73
     1
 72
     1
 10
-21.99036597792406
 20
10.84673060906323
 11
-21.99036597792406
 21
11.0392519172633
 72
     1
 10
-21.99036597792406
 20
11.0392519172633
 11
-21.99036597792406
 21
14.15326939093666
 97
        5
330
90
330
67
330
8F
330
68
330
69
 75
     0
 76
     1
 98
        1
 10
0.0
 20
0.0
  0
HATCH
  5
A6
330
49
100
AcDbEntity
  8
1
  6
Continuous
 62
     7
100
AcDbHatch
 10
0.0
 20
0.0
 30
0.0
210
0.0
220
0.0
230
1.0
  2
SOLID
 70
     1
 71
     1
 91
        1
 92
        1
 93
        7
 72
     2
 10
-20.99036597792406
 20
14.92250016016737
 40
0.3333333333333712
 50
0.0
 51
180.0
 73
     1
 72
     1
 10
-21.32369931125726
 20
14.92250016016737
 11
-21.32369931125726
 21
10.27002114803258
 72
     2
 10
-20.65703264459069
 20
10.2700211480327
 40
0.6666666666665719
 50
180.0000000000104
 51
240.018360631158
 73
     1
 72
     1
 10
-20.99018094691701
 20
9.692564090666906
 11
-18.8236067957539
 21
8.442617464995806
 72
     2
 10
-18.65703264459069
 20
8.731345993678701
 40
0.3333333333333673
 50
240.0183606311504
 51
420.0183606311494
 73
     1
 72
     1
 10
-18.49045849342747
 20
9.020074522361597
 11
-20.65703264459069
 21
10.2700211480327
 72
     1
 10
-20.65703264459069
 20
10.2700211480327
 11
-20.65703264459069
 21
14.92250016016737
 97
        7
330
92
330
6D
330
9B
330
6A
330
91
330
6B
330
6C
 75
     0
 76
     1
 98
        1
 10
0.0
 20
0.0
  0
HATCH
  5
A7
330
49
100
AcDbEntity
  8
1
  6
Continuous
 62
     7
100
AcDbHatch
 10
0.0
 20
0.0
 30
0.0
210
0.0
220
0.0
230
1.0
  2
SOLID
 70
     1
 71
     1
 91
        1
 92
        1
 93
       16
 72
     2
 10
-16.921998857066
 20
15.73121731203457
 40
0.2649662124753114
 50
210.0000000000192
 51
360.0
 73
     0
 72
     1
 10
-16.65703264459069
 20
15.73121731203457
 11
-16.65703264459069
 21
9.308269070601796
 72
     2
 10
-16.990365977924
 20
9.308269070601796
 40
0.3333333333332611
 50
0.0
 51
180.0
 73
     0
 72
     1
 10
-17.32369931125726
 20
9.308269070601796
 11
-17.32369931125726
 21
12.5
 72
     1
 10
-17.32369931125726
 20
12.5
 11
-17.32369931125726
 21
14.23205080756884
 72
     1
 10
-17.32369931125726
 20
14.23205080756884
 11
-18.17936174395987
 21
12.75
 72
     2
 10
-18.32369931125726
 20
12.83333333333326
 40
0.166666666666709
 50
29.99999999998053
 51
150.0000000000378
 73
     0
 72
     1
 10
-18.46803687855476
 20
12.75
 11
-19.32369931125726
 21
14.23205080756884
 72
     1
 10
-19.32369931125726
 20
14.23205080756884
 11
-19.32369931125726
 21
12.5
 72
     1
 10
-19.32369931125726
 20
12.5
 11
-19.32369931125726
 21
10.84758507263291
 72
     2
 10
-19.65703264459069
 20
10.84758507263291
 40
0.3333333333333712
 50
0.0
 51
180.0
 73
     0
 72
     1
 10
-19.99036597792406
 20
10.84758507263291
 11
-19.99036597792406
 21
12.5
 72
     1
 10
-19.99036597792406
 20
12.5
 11
-19.99036597792406
 21
15.73121731203457
 72
     2
 10
-19.7253997654488
 20
15.73121731203457
 40
0.2649662124753808
 50
180.0
 51
329.9999999999927
 73
     0
 72
     1
 10
-19.49593229430059
 20
15.86370041827229
 11
-18.32369931125726
 21
13.83333333333326
 72
     1
 10
-18.32369931125726
 20
13.83333333333326
 11
-17.1514663282141
 21
15.86370041827229
 97
       16
330
73
330
96
330
74
330
72
330
95
330
71
330
79
330
7A
330
9C
330
7B
330
7C
330
70
330
94
330
6F
330
93
330
6E
 75
     0
 76
     1
 98
        1
 10
0.0
 20
0.0
  0
ENDBLK
  5
4B
330
49
100
AcDbEntity
  8
0
100
AcDbBlockEnd
  0
BLOCK
  5
4E
330
4C
100
AcDbEntity
  8
0
100
AcDbBlockBegin
  2
A4
 70
     0
 10
0.0
 20
0.0
 30
0.0
  3
A4
  1

  0
INSERT
  5
4D
330
4C
100
AcDbEntity
  8
1
100
AcDbBlockReference
  2
_formato_A4
 10
0.0
 20
0.0
 30
0.0
  0
ENDBLK
  5
4F
330
4C
100
AcDbEntity
  8
0
100
AcDbBlockEnd
  0
BLOCK
  5
352
330
34A
100
AcDbEntity
  8
0
100
AcDbBlockBegin
  2
*D3
 70
     1
 10
0.0
 20
0.0
 30
0.0
  3
*D3
  1

  0
LINE
  5
34B
330
34A
100
AcDbEntity
  8
1
  6
Continuous
 62
     2
100
AcDbLine
 10
-99.912087245635
 20
228.0728717612658
 30
0.0
 11
-99.912087245635
 21
219.5728717612658
 31
0.0
  0
LINE
  5
34C
330
34A
100
AcDbEntity
  8
1
  6
Continuous
 62
     2
100
AcDbLine
 10
-99.912087245635
 20
243.5728717612658
 30
0.0
 11
-99.912087245635
 21
235.0728717612658
 31
0.0
  0
LINE
  5
34D
330
34A
100
AcDbEntity
  8
1
  6
Continuous
 62
     2
100
AcDbLine
 10
-118.8620872456351
 20
243.5728717612658
 30
0.0
 11
-98.912087245635
 21
243.5728717612658
 31
0.0
  0
LINE
  5
34E
330
34A
100
AcDbEntity
  8
1
  6
Continuous
 62
     2
100
AcDbLine
 10
-109.862087245635
 20
219.5728717612658
 30
0.0
 11
-98.912087245635
 21
219.5728717612658
 31
0.0
  0
SOLID
  5
34F
330
34A
100
AcDbEntity
  8
1
 62
     2
100
AcDbTrace
 10
-99.51712975287282
 20
240.5728717612658
 30
0.0
 11
-100.3070447383972
 21
240.5728717612658
 31
0.0
 12
-99.912087245635
 22
243.5728717612658
 32
0.0
 13
-99.912087245635
 23
243.5728717612658
 33
0.0
  0
SOLID
  5
350
330
34A
100
AcDbEntity
  8
1
 62
     2
100
AcDbTrace
 10
-100.3070447383972
 20
222.5728717612658
 30
0.0
 11
-99.51712975287282
 21
222.5728717612658
 31
0.0
 12
-99.912087245635
 22
219.5728717612658
 32
0.0
 13
-99.912087245635
 23
219.5728717612658
 33
0.0
  0
MTEXT
  5
351
330
34A
100
AcDbEntity
  8
1
 62
     4
100
AcDbMText
 10
-102.162087245635
 20
230.0728717612658
 30
0.0
 40
3.0
 41
0.0
 71
     7
 72
     1
  1
24
  7
CONVERTER_14
 11
0.9999999999970619
 21
2.424068405545306E-6
 31
0.0
 73
     1
 44
0.60024009603842
  0
ENDBLK
  5
353
330
34A
100
AcDbEntity
  8
0
100
AcDbBlockEnd
  0
BLOCK
  5
35E
330
356
100
AcDbEntity
  8
0
100
AcDbBlockBegin
  2
*D4
 70
     1
 10
0.0
 20
0.0
 30
0.0
  3
*D4
  1

  0
LINE
  5
357
330
356
100
AcDbEntity
  8
1
  6
Continuous
 62
     2
100
AcDbLine
 10
-99.912087245635
 20
211.5728717612658
 30
0.0
 11
-99.912087245635
 21
219.5728717612658
 31
0.0
  0
LINE
  5
358
330
356
100
AcDbEntity
  8
1
  6
Continuous
 62
     2
100
AcDbLine
 10
-99.912087245635
 20
196.5728717612658
 30
0.0
 11
-99.912087245635
 21
204.5728717612658
 31
0.0
  0
LINE
  5
359
330
356
100
AcDbEntity
  8
1
  6
Continuous
 62
     2
100
AcDbLine
 10
-120.562087245635
 20
196.5728717612658
 30
0.0
 11
-98.912087245635
 21
196.5728717612658
 31
0.0
  0
LINE
  5
35A
330
356
100
AcDbEntity
  8
1
  6
Continuous
 62
     2
100
AcDbLine
 10
-109.862087245635
 20
219.5728717612658
 30
0.0
 11
-98.912087245635
 21
219.5728717612658
 31
0.0
  0
SOLID
  5
35B
330
356
100
AcDbEntity
  8
1
 62
     2
100
AcDbTrace
 10
-100.3070447383972
 20
199.5728717612658
 30
0.0
 11
-99.51712975287282
 21
199.5728717612658
 31
0.0
 12
-99.912087245635
 22
196.5728717612658
 32
0.0
 13
-99.912087245635
 23
196.5728717612658
 33
0.0
  0
SOLID
  5
35C
330
356
100
AcDbEntity
  8
1
 62
     2
100
AcDbTrace
 10
-99.51712975287282
 20
216.5728717612658
 30
0.0
 11
-100.3070447383972
 21
216.5728717612658
 31
0.0
 12
-99.912087245635
 22
219.5728717612658
 32
0.0
 13
-99.912087245635
 23
219.5728717612658
 33
0.0
  0
MTEXT
  5
35D
330
356
100
AcDbEntity
  8
1
 62
     4
100
AcDbMText
 10
-102.162087245635
 20
206.5728717612658
 30
0.0
 40
3.0
 41
0.0
 71
     7
 72
     1
  1
23
  7
CONVERTER_14
 11
0.9999999999970619
 21
2.424068405545306E-6
 31
0.0
 73
     1
 44
0.60024009603842
  0
ENDBLK
  5
35F
330
356
100
AcDbEntity
  8
0
100
AcDbBlockEnd
  0
BLOCK
  5
36A
330
362
100
AcDbEntity
  8
0
100
AcDbBlockBegin
  2
*D5
 70
     1
 10
0.0
 20
0.0
 30
0.0
  3
*D5
  1

  0
LINE
  5
363
330
362
100
AcDbEntity
  8
1
  6
Continuous
 62
     2
100
AcDbLine
 10
-95.78069446758903
 20
109.5029253591592
 30
0.0
 11
-95.78069446758903
 21
98.0029253591592
 31
0.0
  0
LINE
  5
364
330
362
100
AcDbEntity
  8
1
  6
Continuous
 62
     2
100
AcDbLine
 10
-95.78069446758903
 20
128.0029253591592
 30
0.0
 11
-95.78069446758903
 21
116.5029253591592
 31
0.0
  0
LINE
  5
365
330
362
100
AcDbEntity
  8
1
  6
Continuous
 62
     2
100
AcDbLine
 10
-129.8120872456351
 20
128.0029253591592
 30
0.0
 11
-94.78069446758903
 21
128.0029253591592
 31
0.0
  0
LINE
  5
366
330
362
100
AcDbEntity
  8
1
  6
Continuous
 62
     2
100
AcDbLine
 10
-129.8120872456351
 20
98.0029253591592
 30
0.0
 11
-94.78069446758903
 21
98.0029253591592
 31
0.0
  0
SOLID
  5
367
330
362
100
AcDbEntity
  8
1
 62
     2
100
AcDbTrace
 10
-95.38573697482684
 20
125.0029253591592
 30
0.0
 11
-96.17565196035122
 21
125.0029253591592
 31
0.0
 12
-95.78069446758903
 22
128.0029253591592
 32
0.0
 13
-95.78069446758903
 23
128.0029253591592
 33
0.0
  0
SOLID
  5
368
330
362
100
AcDbEntity
  8
1
 62
     2
100
AcDbTrace
 10
-96.17565196035122
 20
101.0029253591592
 30
0.0
 11
-95.38573697482684
 21
101.0029253591592
 31
0.0
 12
-95.78069446758903
 22
98.0029253591592
 32
0.0
 13
-95.78069446758903
 23
98.0029253591592
 33
0.0
  0
MTEXT
  5
369
330
362
100
AcDbEntity
  8
1
 62
     4
100
AcDbMText
 10
-98.03069446758903
 20
111.5029253591592
 30
0.0
 40
3.0
 41
0.0
 71
     7
 72
     1
  1
30
  7
CONVERTER_14
 11
0.9999999999970619
 21
2.424068405545306E-6
 31
0.0
 73
     1
 44
0.60024009603842
  0
ENDBLK
  5
36B
330
362
100
AcDbEntity
  8
0
100
AcDbBlockEnd
  0
BLOCK
  5
376
330
36E
100
AcDbEntity
  8
0
100
AcDbBlockBegin
  2
*D6
 70
     1
 10
0.0
 20
0.0
 30
0.0
  3
*D6
  1

  0
LINE
  5
36F
330
36E
100
AcDbEntity
  8
1
  6
Continuous
 62
     2
100
AcDbLine
 10
-105.1430499638676
 20
109.5029253591592
 30
0.0
 11
-105.1430499638676
 21
102.0029253591592
 31
0.0
  0
LINE
  5
370
330
36E
100
AcDbEntity
  8
1
  6
Continuous
 62
     2
100
AcDbLine
 10
-105.1430499638676
 20
124.0029253591592
 30
0.0
 11
-105.1430499638676
 21
116.5029253591592
 31
0.0
  0
LINE
  5
371
330
36E
100
AcDbEntity
  8
1
  6
Continuous
 62
     2
100
AcDbLine
 10
-122.412087245635
 20
124.0029253591592
 30
0.0
 11
-104.1430499638676
 21
124.0029253591592
 31
0.0
  0
LINE
  5
372
330
36E
100
AcDbEntity
  8
1
  6
Continuous
 62
     2
100
AcDbLine
 10
-122.412087245635
 20
102.0029253591592
 30
0.0
 11
-104.1430499638676
 21
102.0029253591592
 31
0.0
  0
SOLID
  5
373
330
36E
100
AcDbEntity
  8
1
 62
     2
100
AcDbTrace
 10
-104.7480924711054
 20
121.0029253591592
 30
0.0
 11
-105.5380074566298
 21
121.0029253591592
 31
0.0
 12
-105.1430499638676
 22
124.0029253591592
 32
0.0
 13
-105.1430499638676
 23
124.0029253591592
 33
0.0
  0
SOLID
  5
374
330
36E
100
AcDbEntity
  8
1
 62
     2
100
AcDbTrace
 10
-105.5380074566298
 20
105.0029253591592
 30
0.0
 11
-104.7480924711054
 21
105.0029253591592
 31
0.0
 12
-105.1430499638676
 22
102.0029253591592
 32
0.0
 13
-105.1430499638676
 23
102.0029253591592
 33
0.0
  0
MTEXT
  5
375
330
36E
100
AcDbEntity
  8
1
 62
     4
100
AcDbMText
 10
-107.3930499638676
 20
111.5029253591592
 30
0.0
 40
3.0
 41
0.0
 71
     7
 72
     1
  1
22
  7
CONVERTER_14
 11
0.9999999999970619
 21
2.424068405545306E-6
 31
0.0
 73
     1
 44
0.60024009603842
  0
ENDBLK
  5
377
330
36E
100
AcDbEntity
  8
0
100
AcDbBlockEnd
  0
BLOCK
  5
381
330
37A
100
AcDbEntity
  8
0
100
AcDbBlockBegin
  2
*D7
 70
     1
 10
0.0
 20
0.0
 30
0.0
  3
*D7
  1

  0
LINE
  5
37B
330
37A
100
AcDbEntity
  8
1
  6
Continuous
 62
     2
100
AcDbLine
 10
-144.912087245635
 20
74.6836560641794
 30
0.0
 11
-122.912087245635
 21
74.6836560641794
 31
0.0
  0
LINE
  5
37C
330
37A
100
AcDbEntity
  8
1
  6
Continuous
 62
     2
100
AcDbLine
 10
-144.912087245635
 20
101.5029253591591
 30
0.0
 11
-144.912087245635
 21
73.6836560641794
 31
0.0
  0
LINE
  5
37D
330
37A
100
AcDbEntity
  8
1
  6
Continuous
 62
     2
100
AcDbLine
 10
-122.912087245635
 20
101.5029253591591
 30
0.0
 11
-122.912087245635
 21
73.6836560641794
 31
0.0
  0
SOLID
  5
37E
330
37A
100
AcDbEntity
  8
1
 62
     2
100
AcDbTrace
 10
-141.912087245635
 20
75.07861355694159
 30
0.0
 11
-141.912087245635
 21
74.28869857141721
 31
0.0
 12
-144.912087245635
 22
74.6836560641794
 32
0.0
 13
-144.912087245635
 23
74.6836560641794
 33
0.0
  0
SOLID
  5
37F
330
37A
100
AcDbEntity
  8
1
 62
     2
100
AcDbTrace
 10
-125.912087245635
 20
74.28869857141721
 30
0.0
 11
-125.912087245635
 21
75.07861355694159
 31
0.0
 12
-122.912087245635
 22
74.6836560641794
 32
0.0
 13
-122.912087245635
 23
74.6836560641794
 33
0.0
  0
MTEXT
  5
380
330
37A
100
AcDbEntity
  8
1
 62
     4
100
AcDbMText
 10
-136.162087245635
 20
76.6836560641794
 30
0.0
 40
3.0
 41
0.0
 71
     7
 72
     1
  1
22
  7
CONVERTER_14
 11
0.9999999999970619
 21
2.424068405545306E-6
 31
0.0
 73
     1
 44
0.60024009603842
  0
ENDBLK
  5
382
330
37A
100
AcDbEntity
  8
0
100
AcDbBlockEnd
  0
BLOCK
  5
38C
330
385
100
AcDbEntity
  8
0
100
AcDbBlockBegin
  2
*D8
 70
     1
 10
0.0
 20
0.0
 30
0.0
  3
*D8
  1

  0
LINE
  5
386
330
385
100
AcDbEntity
  8
1
  6
Continuous
 62
     2
100
AcDbLine
 10
-67.81208724563498
 20
270.611155152888
 30
0.0
 11
-35.21208724563502
 21
270.611155152888
 31
0.0
  0
LINE
  5
387
330
385
100
AcDbEntity
  8
1
  6
Continuous
 62
     2
100
AcDbLine
 10
-67.81208724563498
 20
262.2292584791147
 30
0.0
 11
-67.81208724563498
 21
271.611155152888
 31
0.0
  0
LINE
  5
388
330
385
100
AcDbEntity
  8
1
  6
Continuous
 62
     2
100
AcDbLine
 10
-35.21208724563502
 20
262.2292584791147
 30
0.0
 11
-35.21208724563502
 21
271.611155152888
 31
0.0
  0
SOLID
  5
389
330
385
100
AcDbEntity
  8
1
 62
     2
100
AcDbTrace
 10
-64.81208724563498
 20
271.0061126456501
 30
0.0
 11
-64.81208724563498
 21
270.2161976601258
 31
0.0
 12
-67.81208724563498
 22
270.611155152888
 32
0.0
 13
-67.81208724563498
 23
270.611155152888
 33
0.0
  0
SOLID
  5
38A
330
385
100
AcDbEntity
  8
1
 62
     2
100
AcDbTrace
 10
-38.21208724563502
 20
270.2161976601258
 30
0.0
 11
-38.21208724563502
 21
271.0061126456501
 31
0.0
 12
-35.21208724563502
 22
270.611155152888
 32
0.0
 13
-35.21208724563502
 23
270.611155152888
 33
0.0
  0
MTEXT
  5
38B
330
385
100
AcDbEntity
  8
1
 62
     4
100
AcDbMText
 10
-53.76208724563503
 20
272.611155152888
 30
0.0
 40
3.0
 41
0.0
 71
     7
 72
     1
  1
33
  7
CONVERTER_14
 11
0.9999999999970619
 21
2.424068405545306E-6
 31
0.0
 73
     1
 44
0.60024009603842
  0
ENDBLK
  5
38D
330
385
100
AcDbEntity
  8
0
100
AcDbBlockEnd
  0
BLOCK
  5
398
330
390
100
AcDbEntity
  8
0
100
AcDbBlockBegin
  2
*D9
 70
     1
 10
0.0
 20
0.0
 30
0.0
  3
*D9
  1

  0
LINE
  5
391
330
390
100
AcDbEntity
  8
1
  6
Continuous
 62
     2
100
AcDbLine
 10
-23.96208724563508
 20
128.4029253591591
 30
0.0
 11
-23.96208724563508
 21
116.9029253591591
 31
0.0
  0
LINE
  5
392
330
390
100
AcDbEntity
  8
1
  6
Continuous
 62
     2
100
AcDbLine
 10
-23.96208724563508
 20
146.9029253591591
 30
0.0
 11
-23.96208724563508
 21
135.4029253591591
 31
0.0
  0
LINE
  5
393
330
390
100
AcDbEntity
  8
1
  6
Continuous
 62
     2
100
AcDbLine
 10
-47.41208724563506
 20
146.9029253591591
 30
0.0
 11
-22.96208724563508
 21
146.9029253591591
 31
0.0
  0
LINE
  5
394
330
390
100
AcDbEntity
  8
1
  6
Continuous
 62
     2
100
AcDbLine
 10
-47.41208724563506
 20
116.9029253591591
 30
0.0
 11
-22.96208724563508
 21
116.9029253591591
 31
0.0
  0
SOLID
  5
395
330
390
100
AcDbEntity
  8
1
 62
     2
100
AcDbTrace
 10
-23.56712975287289
 20
143.9029253591591
 30
0.0
 11
-24.35704473839727
 21
143.9029253591591
 31
0.0
 12
-23.96208724563508
 22
146.9029253591591
 32
0.0
 13
-23.96208724563508
 23
146.9029253591591
 33
0.0
  0
SOLID
  5
396
330
390
100
AcDbEntity
  8
1
 62
     2
100
AcDbTrace
 10
-24.35704473839727
 20
119.9029253591591
 30
0.0
 11
-23.56712975287289
 21
119.9029253591591
 31
0.0
 12
-23.96208724563508
 22
116.9029253591591
 32
0.0
 13
-23.96208724563508
 23
116.9029253591591
 33
0.0
  0
MTEXT
  5
397
330
390
100
AcDbEntity
  8
1
 62
     4
100
AcDbMText
 10
-26.21208724563508
 20
130.4029253591591
 30
0.0
 40
3.0
 41
0.0
 71
     7
 72
     1
  1
30
  7
CONVERTER_14
 11
0.9999999999970619
 21
2.424068405545306E-6
 31
0.0
 73
     1
 44
0.60024009603842
  0
ENDBLK
  5
399
330
390
100
AcDbEntity
  8
0
100
AcDbBlockEnd
  0
BLOCK
  5
3A3
330
39C
100
AcDbEntity
  8
0
100
AcDbBlockBegin
  2
*D10
 70
     1
 10
0.0
 20
0.0
 30
0.0
  3
*D10
  1

  0
LINE
  5
39D
330
39C
100
AcDbEntity
  8
1
  6
Continuous
 62
     2
100
AcDbLine
 10
-152.3620872456351
 20
186.0154267571644
 30
0.0
 11
-110.3620872456351
 21
186.0154267571644
 31
0.0
  0
LINE
  5
39E
330
39C
100
AcDbEntity
  8
1
  6
Continuous
 62
     2
100
AcDbLine
 10
-152.3620872456351
 20
219.0728717612659
 30
0.0
 11
-152.3620872456351
 21
185.0154267571644
 31
0.0
  0
LINE
  5
39F
330
39C
100
AcDbEntity
  8
1
  6
Continuous
 62
     2
100
AcDbLine
 10
-110.3620872456351
 20
219.0728717612659
 30
0.0
 11
-110.3620872456351
 21
185.0154267571644
 31
0.0
  0
SOLID
  5
3A0
330
39C
100
AcDbEntity
  8
1
 62
     2
100
AcDbTrace
 10
-149.3620872456351
 20
186.4103842499266
 30
0.0
 11
-149.3620872456351
 21
185.6204692644022
 31
0.0
 12
-152.3620872456351
 22
186.0154267571644
 32
0.0
 13
-152.3620872456351
 23
186.0154267571644
 33
0.0
  0
SOLID
  5
3A1
330
39C
100
AcDbEntity
  8
1
 62
     2
100
AcDbTrace
 10
-113.3620872456351
 20
185.6204692644022
 30
0.0
 11
-113.3620872456351
 21
186.4103842499266
 31
0.0
 12
-110.3620872456351
 22
186.0154267571644
 32
0.0
 13
-110.3620872456351
 23
186.0154267571644
 33
0.0
  0
MTEXT
  5
3A2
330
39C
100
AcDbEntity
  8
1
 62
     4
100
AcDbMText
 10
-133.6120872456351
 20
188.0154267571644
 30
0.0
 40
3.0
 41
0.0
 71
     7
 72
     1
  1
42
  7
CONVERTER_14
 11
0.9999999999970619
 21
2.424068405545306E-6
 31
0.0
 73
     1
 44
0.60024009603842
  0
ENDBLK
  5
3A4
330
39C
100
AcDbEntity
  8
0
100
AcDbBlockEnd
  0
BLOCK
  5
3B0
330
3A7
100
AcDbEntity
  8
0
100
AcDbBlockBegin
  2
*D11
 70
     1
 10
0.0
 20
0.0
 30
0.0
  3
*D11
  1

  0
LINE
  5
3A8
330
3A7
100
AcDbEntity
  8
1
  6
Continuous
 62
     2
100
AcDbLine
 10
-152.3620872456351
 20
186.0154267571644
 30
0.0
 11
-146.3620872456351
 21
186.0154267571644
 31
0.0
  0
LINE
  5
3A9
330
3A7
100
AcDbEntity
  8
1
  6
Continuous
 62
     2
100
AcDbLine
 10
-160.3620872456351
 20
186.0154267571644
 30
0.0
 11
-152.3620872456351
 21
186.0154267571644
 31
0.0
  0
LINE
  5
3AA
330
3A7
100
AcDbEntity
  8
1
  6
Continuous
 62
     2
100
AcDbLine
 10
-166.3620872456351
 20
186.0154267571644
 30
0.0
 11
-160.3620872456351
 21
186.0154267571644
 31
0.0
  0
LINE
  5
3AB
330
3A7
100
AcDbEntity
  8
1
  6
Continuous
 62
     2
100
AcDbLine
 10
-160.3620872456351
 20
237.5728717612658
 30
0.0
 11
-160.3620872456351
 21
185.0154267571644
 31
0.0
  0
LINE
  5
3AC
330
3A7
100
AcDbEntity
  8
1
  6
Continuous
 62
     2
100
AcDbLine
 10
-152.3620872456351
 20
219.0728717612659
 30
0.0
 11
-152.3620872456351
 21
185.0154267571644
 31
0.0
  0
SOLID
  5
3AD
330
3A7
100
AcDbEntity
  8
1
 62
     2
100
AcDbTrace
 10
-163.3620872456351
 20
185.6204692644022
 30
0.0
 11
-163.3620872456351
 21
186.4103842499266
 31
0.0
 12
-160.3620872456351
 22
186.0154267571644
 32
0.0
 13
-160.3620872456351
 23
186.0154267571644
 33
0.0
  0
SOLID
  5
3AE
330
3A7
100
AcDbEntity
  8
1
 62
     2
100
AcDbTrace
 10
-149.3620872456351
 20
186.4103842499266
 30
0.0
 11
-149.3620872456351
 21
185.6204692644022
 31
0.0
 12
-152.3620872456351
 22
186.0154267571644
 32
0.0
 13
-152.3620872456351
 23
186.0154267571644
 33
0.0
  0
MTEXT
  5
3AF
330
3A7
100
AcDbEntity
  8
1
 62
     4
100
AcDbMText
 10
-157.2620872456351
 20
188.0154267571644
 30
0.0
 40
3.0
 41
0.0
 71
     7
 72
     1
  1
8
  7
CONVERTER_14
 11
0.9999999999970619
 21
2.424068405545306E-6
 31
0.0
 73
     1
 44
0.60024009603842
  0
ENDBLK
  5
3B1
330
3A7
100
AcDbEntity
  8
0
100
AcDbBlockEnd
  0
BLOCK
  5
3BB
330
3B4
100
AcDbEntity
  8
0
100
AcDbBlockBegin
  2
*D12
 70
     1
 10
0.0
 20
0.0
 30
0.0
  3
*D12
  1

  0
LINE
  5
3B5
330
3B4
100
AcDbEntity
  8
1
  6
Continuous
 62
     2
100
AcDbLine
 10
-66.76208724563509
 20
185.8654267571644
 30
0.0
 11
-36.26208724563503
 21
185.8654267571644
 31
0.0
  0
LINE
  5
3B6
330
3B4
100
AcDbEntity
  8
1
  6
Continuous
 62
     2
100
AcDbLine
 10
-66.76208724563509
 20
219.0728717612659
 30
0.0
 11
-66.76208724563509
 21
184.8654267571644
 31
0.0
  0
LINE
  5
3B7
330
3B4
100
AcDbEntity
  8
1
  6
Continuous
 62
     2
100
AcDbLine
 10
-36.26208724563503
 20
219.0728717612659
 30
0.0
 11
-36.26208724563503
 21
184.8654267571644
 31
0.0
  0
SOLID
  5
3B8
330
3B4
100
AcDbEntity
  8
1
 62
     2
100
AcDbTrace
 10
-63.76208724563509
 20
186.2603842499266
 30
0.0
 11
-63.76208724563509
 21
185.4704692644022
 31
0.0
 12
-66.76208724563509
 22
185.8654267571644
 32
0.0
 13
-66.76208724563509
 23
185.8654267571644
 33
0.0
  0
SOLID
  5
3B9
330
3B4
100
AcDbEntity
  8
1
 62
     2
100
AcDbTrace
 10
-39.26208724563503
 20
185.4704692644022
 30
0.0
 11
-39.26208724563503
 21
186.2603842499266
 31
0.0
 12
-36.26208724563503
 22
185.8654267571644
 32
0.0
 13
-36.26208724563503
 23
185.8654267571644
 33
0.0
  0
MTEXT
  5
3BA
330
3B4
100
AcDbEntity
  8
1
 62
     4
100
AcDbMText
 10
-55.63708724563503
 20
188.1654267571644
 30
0.0
 40
3.0
 41
0.0
 71
     7
 72
     1
  1
30,5
  7
CONVERTER_14
 11
0.9999999999970619
 21
2.424068405545306E-6
 31
0.0
 73
     1
 44
0.60024009603842
  0
ENDBLK
  5
3BC
330
3B4
100
AcDbEntity
  8
0
100
AcDbBlockEnd
  0
BLOCK
  5
3C5
330
3BF
100
AcDbEntity
  8
0
100
AcDbBlockBegin
  2
*D13
 70
     1
 10
0.0
 20
0.0
 30
0.0
  3
*D13
  1

  0
LINE
  5
3C0
330
3BF
100
AcDbEntity
  8
1
  6
Continuous
 62
     2
100
AcDbLine
 10
-122.342043432995
 20
145.3479691717991
 30
0.0
 11
-108.492043432995
 21
145.3479691717991
 31
0.0
  0
LINE
  5
3C1
330
3BF
100
AcDbEntity
  8
1
  6
Continuous
 62
     2
100
AcDbLine
 10
-137.2971115941306
 20
122.9283209253051
 30
0.0
 11
-122.342043432995
 21
145.3479691717991
 31
0.0
  0
SOLID
  5
3C2
330
3BF
100
AcDbEntity
  8
1
 62
     2
100
AcDbTrace
 10
-131.6880120064342
 20
132.0488468551182
 30
0.0
 11
-131.0308798608752
 21
131.6105056322917
 31
0.0
 12
-133.0242120066853
 22
129.3339691450882
 32
0.0
 13
-133.0242120066853
 23
129.3339691450882
 33
0.0
  0
SOLID
  5
3C3
330
3BF
100
AcDbEntity
  8
1
 62
     2
100
AcDbTrace
 10
-136.1361624848358
 20
123.9570038632002
 30
0.0
 11
-136.7932946303948
 21
124.3953450860267
 31
0.0
 12
-134.7999624845847
 22
126.6718815732302
 32
0.0
 13
-134.7999624845847
 23
126.6718815732302
 33
0.0
  0
MTEXT
  5
3C4
330
3BF
100
AcDbEntity
  8
1
 62
     4
100
AcDbMText
 10
-116.5020434329878
 20
147.6479632085908
 30
0.0
 40
3.0
 41
0.0
 71
     7
 72
     1
  1
\C4;\U+00f8\C4;3,3
  7
CONVERTER_14
 11
0.9999999999970619
 21
2.424068405545306E-6
 31
0.0
 73
     1
 44
0.60024009603842
  0
ENDBLK
  5
3C6
330
3BF
100
AcDbEntity
  8
0
100
AcDbBlockEnd
  0
BLOCK
  5
3CE
330
3C8
100
AcDbEntity
  8
0
100
AcDbBlockBegin
  2
*D14
 70
     1
 10
0.0
 20
0.0
 30
0.0
  3
*D14
  1

  0
LINE
  5
3C9
330
3C8
100
AcDbEntity
  8
1
  6
Continuous
 62
     2
100
AcDbLine
 10
-44.40041886211844
 20
159.7895937426757
 30
0.0
 11
-30.55041886211842
 21
159.7895937426757
 31
0.0
  0
LINE
  5
3CA
330
3C8
100
AcDbEntity
  8
1
  6
Continuous
 62
     2
100
AcDbLine
 10
-54.48358383132125
 20
141.5184376359625
 30
0.0
 11
-44.40041886211844
 21
159.7895937426757
 31
0.0
  0
SOLID
  5
3CB
330
3C8
100
AcDbEntity
  8
1
 62
     2
100
AcDbTrace
 10
-49.61114165986616
 20
151.1649550752726
 30
0.0
 11
-48.91955018963445
 21
150.7832917122697
 31
0.0
 12
-50.71485645435337
 22
148.3475440166021
 32
0.0
 13
-50.71485645435337
 23
148.3475440166021
 33
0.0
  0
SOLID
  5
3CC
330
3C8
100
AcDbEntity
  8
1
 62
     2
100
AcDbTrace
 10
-53.41303283140391
 20
142.6408956430456
 30
0.0
 11
-54.10462430163562
 21
143.0225590060485
 31
0.0
 12
-52.30931803691669
 22
145.4583067017161
 32
0.0
 13
-52.30931803691669
 23
145.4583067017161
 33
0.0
  0
MTEXT
  5
3CD
330
3C8
100
AcDbEntity
  8
1
 62
     4
100
AcDbMText
 10
-38.56041886211121
 20
162.0895877794674
 30
0.0
 40
3.0
 41
0.0
 71
     7
 72
     1
  1
\C4;\U+00f8\C4;3,3
  7
CONVERTER_14
 11
0.9999999999970619
 21
2.424068405545306E-6
 31
0.0
 73
     1
 44
0.60024009603842
  0
ENDBLK
  5
3CF
330
3C8
100
AcDbEntity
  8
0
100
AcDbBlockEnd
  0
ENDSEC
  0
SECTION
  2
ENTITIES
  0
INSERT
  5
50
330
1F
100
AcDbEntity
  8
0
100
AcDbBlockReference
  2
A4
 10
0.0
 20
0.0
 30
0.0
  0
LINE
  5
A8
330
1F
100
AcDbEntity
  8
0
  6
Continuous
 62
     7
100
AcDbLine
 10
-42.71201109176343
 20
142.7029253591592
 30
0.0
 11
-60.31216339950674
 21
142.7029253591592
 31
0.0
  0
LINE
  5
A9
330
1F
100
AcDbEntity
  8
0
  6
Continuous
 62
     7
100
AcDbLine
 10
-42.71208724563508
 20
143.9029253591591
 30
0.0
 11
-60.31208724563498
 21
143.9029253591591
 31
0.0
  0
LINE
  5
AA
102
{ACAD_REACTORS
330
3D1
102
}
330
1F
100
AcDbEntity
  8
0
  6
Continuous
 62
     7
100
AcDbLine
 10
-54.01208724563503
 20
151.2330523780813
 30
0.0
 11
-63.01208724563503
 21
146.0368999553747
 31
0.0
  0
LINE
  5
AB
330
1F
100
AcDbEntity
  8
0
  6
Continuous
 62
     7
100
AcDbLine
 10
-60.31216339950674
 20
121.1029253591592
 30
0.0
 11
-42.71201109176343
 21
121.1029253591592
 31
0.0
  0
LINE
  5
AC
330
1F
100
AcDbEntity
  8
0
  6
Continuous
 62
     7
100
AcDbLine
 10
-60.31208724563498
 20
119.9029253591591
 30
0.0
 11
-42.71208724563508
 21
119.9029253591591
 31
0.0
  0
LINE
  5
AD
330
1F
100
AcDbEntity
  8
0
  6
Continuous
 62
     7
100
AcDbLine
 10
-39.51208724563503
 20
123.1029253591592
 30
0.0
 11
-39.51208724563503
 21
140.7029253591592
 31
0.0
  0
LINE
  5
AE
102
{ACAD_REACTORS
330
3D1
102
}
330
1F
100
AcDbEntity
  8
0
  6
Continuous
 62
     7
100
AcDbLine
 10
-37.51208724563503
 20
141.7067729364525
 30
0.0
 11
-37.51208724563503
 21
140.5666634796102
 31
0.0
  0
LINE
  5
AF
102
{ACAD_REACTORS
330
3D1
102
}
330
1F
100
AcDbEntity
  8
0
  6
Continuous
 62
     7
100
AcDbLine
 10
-40.01208724563503
 20
146.0368999553747
 30
0.0
 11
-49.01208724563503
 21
151.2330523780813
 31
0.0
  0
LINE
  5
B0
330
1F
100
AcDbEntity
  8
0
  6
Continuous
 62
     7
100
AcDbLine
 10
-40.71208724563508
 20
123.1028492052874
 30
0.0
 11
-40.71208724563508
 21
140.7030015130308
 31
0.0
  0
LINE
  5
B1
330
1F
100
AcDbEntity
  8
0
  6
Continuous
 62
     7
100
AcDbLine
 10
-62.31208724563498
 20
140.7030015130308
 30
0.0
 11
-62.31208724563498
 21
123.1028492052874
 31
0.0
  0
LINE
  5
B2
330
1F
100
AcDbEntity
  8
0
  6
Continuous
 62
     7
100
AcDbLine
 10
-63.51208724563503
 20
140.7029253591592
 30
0.0
 11
-63.51208724563503
 21
123.1029253591592
 31
0.0
  0
LINE
  5
B3
102
{ACAD_REACTORS
330
3D1
102
}
330
1F
100
AcDbEntity
  8
0
  6
Continuous
 62
     7
100
AcDbLine
 10
-65.51208724563503
 20
141.7067729364525
 30
0.0
 11
-65.51208724563503
 21
140.5666634796101
 31
0.0
  0
LINE
  5
B4
330
1F
100
AcDbEntity
  8
0
  6
Continuous
 62
     7
100
AcDbLine
 10
-143.3620872456351
 20
224.5678717612659
 30
0.0
 11
-143.3620872456351
 21
238.1987827584074
 31
0.0
  0
LINE
  5
B5
330
1F
100
AcDbEntity
  8
0
  6
Continuous
 62
     7
100
AcDbLine
 10
-140.162087245635
 20
243.5728717612658
 30
0.0
 11
-142.8763782852551
 21
243.5728717612658
 31
0.0
  0
LINE
  5
B6
330
1F
100
AcDbEntity
  8
0
  6
Continuous
 62
     7
100
AcDbLine
 10
-119.3620872456351
 20
224.5678717612659
 30
0.0
 11
-119.3620872456351
 21
243.5728717612658
 31
0.0
  0
LINE
  5
B7
330
1F
100
AcDbEntity
  8
0
  6
Continuous
 62
     7
100
AcDbLine
 10
-133.512087245635
 20
238.0728717612658
 30
0.0
 11
-133.512087245635
 21
235.9806241659751
 31
0.0
  0
LINE
  5
B8
330
1F
100
AcDbEntity
  8
0
  6
Continuous
 62
     7
100
AcDbLine
 10
-149.8620872456351
 20
224.0728717612658
 30
0.0
 11
-112.8620872456351
 21
224.0728717612658
 31
0.0
  0
LINE
  5
B9
330
1F
100
AcDbEntity
  8
0
  6
Continuous
 62
     7
100
AcDbLine
 10
-131.3620872456352
 20
235.0728717612658
 30
0.0
 11
-131.3620872456352
 21
235.922871761266
 31
0.0
  0
LINE
  5
BA
330
1F
100
AcDbEntity
  8
0
  6
Continuous
 62
     7
100
AcDbLine
 10
-127.8979856304964
 20
243.5728717612658
 30
0.0
 11
-119.3620872456351
 21
243.5728717612658
 31
0.0
  0
LINE
  5
BB
330
1F
100
AcDbEntity
  8
0
  6
Continuous
 62
     7
100
AcDbLine
 10
-140.162087245635
 20
243.5728717612658
 30
0.0
 11
-134.8261888607738
 21
243.5728717612658
 31
0.0
  0
LINE
  5
BC
330
1F
100
AcDbEntity
  8
0
  6
Continuous
 62
     7
100
AcDbLine
 10
-65.01208724563503
 20
240.5728717612658
 30
0.0
 11
-64.26208724563503
 21
240.5728717612658
 31
0.0
  0
LINE
  5
BD
330
1F
100
AcDbEntity
  8
0
  6
Continuous
 62
     7
100
AcDbLine
 10
-64.26208724563503
 20
240.5728717612658
 30
0.0
 11
-63.51208724563503
 21
241.3228717612658
 31
0.0
  0
LINE
  5
BE
330
1F
100
AcDbEntity
  8
0
  6
Continuous
 62
     7
100
AcDbLine
 10
-63.51208724563503
 20
243.5728717612658
 30
0.0
 11
-63.51208724563503
 21
224.5678717612659
 31
0.0
  0
LINE
  5
BF
330
1F
100
AcDbEntity
  8
0
  6
Continuous
 62
     7
100
AcDbLine
 10
-64.26208724563503
 20
235.5728717612658
 30
0.0
 11
-63.51208724563503
 21
234.8228717612658
 31
0.0
  0
LINE
  5
C0
330
1F
100
AcDbEntity
  8
0
  6
Continuous
 62
     7
100
AcDbLine
 10
-67.61208724563505
 20
240.2228717612659
 30
0.0
 11
-67.49096150847254
 21
240.2228717612659
 31
0.0
  0
LINE
  5
C1
330
1F
100
AcDbEntity
  8
0
  6
Continuous
 62
     7
100
AcDbLine
 10
-35.41208724563501
 20
240.2228717612659
 30
0.0
 11
-35.53321298279752
 21
240.2228717612659
 31
0.0
  0
LINE
  5
C2
330
1F
100
AcDbEntity
  8
0
  6
Continuous
 62
     7
100
AcDbLine
 10
-35.41208724563501
 20
240.2228717612659
 30
0.0
 11
-35.41208724563501
 21
235.0728717612658
 31
0.0
  0
LINE
  5
C3
330
1F
100
AcDbEntity
  8
0
  6
Continuous
 62
     7
100
AcDbLine
 10
-36.71208724563508
 20
235.0728717612658
 30
0.0
 11
-35.41208724563501
 21
235.0728717612658
 31
0.0
  0
LINE
  5
C4
330
1F
100
AcDbEntity
  8
0
  6
Continuous
 62
     7
100
AcDbLine
 10
-36.71208724563508
 20
235.9806241659751
 30
0.0
 11
-36.71208724563508
 21
238.0728717612658
 31
0.0
  0
LINE
  5
C5
330
1F
100
AcDbEntity
  8
0
  6
Continuous
 62
     7
100
AcDbLine
 10
-36.71208724563508
 20
235.922871761266
 30
0.0
 11
-36.71208724563508
 21
235.0728717612658
 31
0.0
  0
LINE
  5
C6
330
1F
100
AcDbEntity
  8
0
  6
Continuous
 62
     7
100
AcDbLine
 10
-38.01208724563503
 20
235.5728717612658
 30
0.0
 11
-38.76208724563503
 21
235.5728717612658
 31
0.0
  0
LINE
  5
C7
330
1F
100
AcDbEntity
  8
0
  6
Continuous
 62
     7
100
AcDbLine
 10
-38.76208724563503
 20
235.5728717612658
 30
0.0
 11
-39.51208724563503
 21
234.8228717612658
 31
0.0
  0
LINE
  5
C8
330
1F
100
AcDbEntity
  8
0
  6
Continuous
 62
     7
100
AcDbLine
 10
-38.01208724563503
 20
240.5728717612658
 30
0.0
 11
-38.76208724563503
 21
240.5728717612658
 31
0.0
  0
LINE
  5
C9
330
1F
100
AcDbEntity
  8
0
  6
Continuous
 62
     7
100
AcDbLine
 10
-38.76208724563503
 20
240.5728717612658
 30
0.0
 11
-39.51208724563503
 21
241.3228717612658
 31
0.0
  0
LINE
  5
CA
330
1F
100
AcDbEntity
  8
0
  6
Continuous
 62
     7
100
AcDbLine
 10
-39.51208724563503
 20
243.5728717612658
 30
0.0
 11
-39.51208724563503
 21
224.5678717612659
 31
0.0
  0
LINE
  5
CB
330
1F
100
AcDbEntity
  8
0
  6
Continuous
 62
     7
100
AcDbLine
 10
-39.51208724563503
 20
243.5728717612658
 30
0.0
 11
-63.51208724563503
 21
243.5728717612658
 31
0.0
  0
LINE
  5
CC
330
1F
100
AcDbEntity
  8
0
  6
Continuous
 62
     7
100
AcDbLine
 10
-65.01208724563503
 20
235.5728717612658
 30
0.0
 11
-64.26208724563503
 21
235.5728717612658
 31
0.0
  0
LINE
  5
CD
330
1F
100
AcDbEntity
  8
0
  6
Continuous
 62
     7
100
AcDbLine
 10
-66.31208724563498
 20
235.922871761266
 30
0.0
 11
-66.31208724563498
 21
235.0728717612658
 31
0.0
  0
LINE
  5
CE
330
1F
100
AcDbEntity
  8
0
  6
Continuous
 62
     7
100
AcDbLine
 10
-66.31208724563498
 20
235.9806241659751
 30
0.0
 11
-66.31208724563498
 21
238.0728717612658
 31
0.0
  0
LINE
  5
CF
330
1F
100
AcDbEntity
  8
0
  6
Continuous
 62
     7
100
AcDbLine
 10
-67.61208724563505
 20
235.0728717612658
 30
0.0
 11
-66.31208724563498
 21
235.0728717612658
 31
0.0
  0
LINE
  5
D0
330
1F
100
AcDbEntity
  8
0
  6
Continuous
 62
     7
100
AcDbLine
 10
-67.61208724563505
 20
240.2228717612659
 30
0.0
 11
-67.61208724563505
 21
235.0728717612658
 31
0.0
  0
LINE
  5
D1
330
1F
100
AcDbEntity
  8
0
  6
Continuous
 62
     7
100
AcDbLine
 10
-39.01208724563503
 20
224.0728717612658
 30
0.0
 11
-64.01208724563503
 21
224.0728717612658
 31
0.0
  0
LINE
  5
D2
330
1F
100
AcDbEntity
  8
1
  6
Continuous
 62
     7
100
AcDbLine
 10
-51.05004932188001
 20
231.5451484125616
 30
0.0
 11
-51.51208724563514
 21
231.7392354020696
 31
0.0
  0
LINE
  5
D3
330
1F
100
AcDbEntity
  8
1
  6
Continuous
 62
     7
100
AcDbLine
 10
-50.40928931205519
 20
230.9043884027354
 30
0.0
 11
-51.05004932188001
 21
231.5451484125616
 31
0.0
  0
LINE
  5
D4
330
1F
100
AcDbEntity
  8
1
  6
Continuous
 62
     7
100
AcDbLine
 10
-51.51208724563514
 20
231.7392354020696
 30
0.0
 11
-51.97412516939005
 21
231.5451484125616
 31
0.0
  0
LINE
  5
D5
330
1F
100
AcDbEntity
  8
1
  6
Continuous
 62
     7
100
AcDbLine
 10
-51.97412516939005
 20
231.5451484125616
 30
0.0
 11
-53.68790270378929
 21
229.8313708781624
 31
0.0
  0
LINE
  5
D6
330
1F
100
AcDbEntity
  8
1
  6
Continuous
 62
     7
100
AcDbLine
 10
-52.32526004399961
 20
231.1940135379521
 30
0.0
 11
-52.74952411271158
 21
231.6182776066641
 31
0.0
  0
LINE
  5
D7
330
1F
100
AcDbEntity
  8
1
  6
Continuous
 62
     7
100
AcDbLine
 10
-52.34572360483139
 20
232.5728717612658
 30
0.0
 11
-52.5398105943392
 21
233.0349096850206
 31
0.0
  0
LINE
  5
D8
330
1F
100
AcDbEntity
  8
1
  6
Continuous
 62
     7
100
AcDbLine
 10
-52.5398105943392
 20
233.0349096850206
 30
0.0
 11
-53.18057060416459
 21
233.6756696948465
 31
0.0
  0
LINE
  5
D9
330
1F
100
AcDbEntity
  8
1
  6
Continuous
 62
     7
100
AcDbLine
 10
-52.5398105943392
 20
232.110833837511
 30
0.0
 11
-54.25358812873856
 21
230.3970563031117
 31
0.0
  0
LINE
  5
DA
330
1F
100
AcDbEntity
  8
1
  6
Continuous
 62
     7
100
AcDbLine
 10
-52.5398105943392
 20
232.110833837511
 30
0.0
 11
-52.34572360483139
 21
232.5728717612658
 31
0.0
  0
LINE
  5
DB
330
1F
100
AcDbEntity
  8
1
  6
Continuous
 62
     7
100
AcDbLine
 10
-52.6081027564743
 20
231.4768562504267
 30
0.0
 11
-52.89094546894887
 21
231.7596989629014
 31
0.0
  0
LINE
  5
DC
330
1F
100
AcDbEntity
  8
1
  6
Continuous
 62
     7
100
AcDbLine
 10
-50.67845088643878
 20
232.5728717612658
 30
0.0
 11
-50.48436389693086
 21
232.110833837511
 31
0.0
  0
LINE
  5
DD
330
1F
100
AcDbEntity
  8
1
  6
Continuous
 62
     7
100
AcDbLine
 10
-50.48436389693086
 20
232.110833837511
 30
0.0
 11
-49.84360388710593
 21
231.4700738276846
 31
0.0
  0
LINE
  5
DE
330
1F
100
AcDbEntity
  8
1
  6
Continuous
 62
     7
100
AcDbLine
 10
-50.40928931205519
 20
230.9043884027354
 30
0.0
 11
-49.84360388710593
 21
231.4700738276846
 31
0.0
  0
LINE
  5
DF
330
1F
100
AcDbEntity
  8
1
  6
Continuous
 62
     7
100
AcDbLine
 10
-50.48436389693097
 20
233.0349096850207
 30
0.0
 11
-48.7705863625315
 21
234.7486872194201
 31
0.0
  0
LINE
  5
E0
330
1F
100
AcDbEntity
  8
1
  6
Continuous
 62
     7
100
AcDbLine
 10
-50.48436389693097
 20
233.0349096850207
 30
0.0
 11
-50.67845088643878
 21
232.5728717612658
 31
0.0
  0
LINE
  5
E1
330
1F
100
AcDbEntity
  8
1
  6
Continuous
 62
     7
100
AcDbLine
 10
-51.97412516938982
 20
233.60059510997
 30
0.0
 11
-51.51208724563503
 21
233.4065081204622
 31
0.0
  0
LINE
  5
E2
330
1F
100
AcDbEntity
  8
1
  6
Continuous
 62
     7
100
AcDbLine
 10
-52.61488517921532
 20
234.2413551197957
 30
0.0
 11
-51.97412516938982
 21
233.60059510997
 31
0.0
  0
LINE
  5
E3
330
1F
100
AcDbEntity
  8
1
  6
Continuous
 62
     7
100
AcDbLine
 10
-52.61488517921532
 20
234.2413551197957
 30
0.0
 11
-53.18057060416459
 21
233.6756696948465
 31
0.0
  0
LINE
  5
E4
330
1F
100
AcDbEntity
  8
1
  6
Continuous
 62
     7
100
AcDbLine
 10
-51.51208724563503
 20
233.4065081204622
 30
0.0
 11
-51.05004932188024
 21
233.60059510997
 31
0.0
  0
LINE
  5
E5
330
1F
100
AcDbEntity
  8
1
  6
Continuous
 62
     7
100
AcDbLine
 10
-50.69891444727057
 20
233.9517299845797
 30
0.0
 11
-50.1332290223213
 21
233.3860445596304
 31
0.0
  0
LINE
  5
E6
330
1F
100
AcDbEntity
  8
1
  6
Continuous
 62
     7
100
AcDbLine
 10
-51.05004932188024
 20
233.60059510997
 30
0.0
 11
-49.33627178748088
 21
235.3143726443693
 31
0.0
  0
LINE
  5
E7
330
1F
100
AcDbEntity
  8
0
  6
Continuous
 62
     7
100
AcDbLine
 10
-59.51208724563503
 20
142.2029253591592
 30
0.0
 11
-43.51208724563503
 21
142.2029253591592
 31
0.0
  0
LINE
  5
E8
330
1F
100
AcDbEntity
  8
0
  6
Continuous
 62
     7
100
AcDbLine
 10
-62.01208724563503
 20
139.8029253591592
 30
0.0
 11
-62.01208724563503
 21
138.0529253591592
 31
0.0
  0
LINE
  5
E9
330
1F
100
AcDbEntity
  8
0
  6
Continuous
 62
     7
100
AcDbLine
 10
-62.01208724563503
 20
132.9529253591592
 30
0.0
 11
-62.01208724563503
 21
129.4029253591591
 31
0.0
  0
LINE
  5
EA
330
1F
100
AcDbEntity
  8
0
  6
Continuous
 62
     7
100
AcDbLine
 10
-62.01208724563503
 20
138.0529253591592
 30
0.0
 11
-62.01208724563503
 21
132.9529253591592
 31
0.0
  0
LINE
  5
EB
330
1F
100
AcDbEntity
  8
0
  6
Continuous
 62
     7
100
AcDbLine
 10
-60.51208724563503
 20
138.0529253591592
 30
0.0
 11
-62.01208724563503
 21
138.0529253591592
 31
0.0
  0
LINE
  5
EC
330
1F
100
AcDbEntity
  8
0
  6
Continuous
 62
     7
100
AcDbLine
 10
-60.51208724563503
 20
129.4029253591591
 30
0.0
 11
-60.51208724563503
 21
142.0277849052879
 31
0.0
  0
LINE
  5
ED
330
1F
100
AcDbEntity
  8
0
  6
Continuous
 62
     7
100
AcDbLine
 10
-60.51208724563503
 20
132.9529253591592
 30
0.0
 11
-62.01208724563503
 21
132.9529253591592
 31
0.0
  0
LINE
  5
EE
330
1F
100
AcDbEntity
  8
0
  6
Continuous
 62
     7
100
AcDbLine
 10
-43.41208724563501
 20
121.2029253591592
 30
0.0
 11
-46.61208724563505
 21
121.2029253591592
 31
0.0
  0
LINE
  5
EF
330
1F
100
AcDbEntity
  8
0
  6
Continuous
 62
     7
100
AcDbLine
 10
-44.51208724563503
 20
128.8029253591592
 30
0.0
 11
-44.51208724563503
 21
140.2029253591592
 31
0.0
  0
LINE
  5
F0
330
1F
100
AcDbEntity
  8
0
  6
Continuous
 62
     7
100
AcDbLine
 10
-46.61208724563505
 20
121.2029253591592
 30
0.0
 11
-48.41208724563501
 21
123.0029253591591
 31
0.0
  0
LINE
  5
F1
330
1F
100
AcDbEntity
  8
0
  6
Continuous
 62
     7
100
AcDbLine
 10
-42.51208724563503
 20
129.4029253591591
 30
0.0
 11
-42.51208724563503
 21
142.0277849052879
 31
0.0
  0
LINE
  5
F2
330
1F
100
AcDbEntity
  8
0
  6
Continuous
 62
     7
100
AcDbLine
 10
-41.01208724563503
 20
129.4029253591591
 30
0.0
 11
-42.51208724563503
 21
129.4029253591591
 31
0.0
  0
LINE
  5
F3
330
1F
100
AcDbEntity
  8
0
  6
Continuous
 62
     7
100
AcDbLine
 10
-62.01208724563503
 20
129.4029253591591
 30
0.0
 11
-60.51208724563503
 21
129.4029253591591
 31
0.0
  0
LINE
  5
F4
330
1F
100
AcDbEntity
  8
0
  6
Continuous
 62
     7
100
AcDbLine
 10
-58.51208724563503
 20
128.8029253591592
 30
0.0
 11
-44.51208724563503
 21
128.8029253591592
 31
0.0
  0
LINE
  5
F5
330
1F
100
AcDbEntity
  8
0
  6
Continuous
 62
     7
100
AcDbLine
 10
-56.41208724563501
 20
121.2029253591592
 30
0.0
 11
-59.61208724563505
 21
121.2029253591592
 31
0.0
  0
LINE
  5
F6
330
1F
100
AcDbEntity
  8
0
  6
Continuous
 62
     7
100
AcDbLine
 10
-62.01208724563503
 20
129.4029253591591
 30
0.0
 11
-62.01208724563503
 21
126.8029253591591
 31
0.0
  0
LINE
  5
F7
330
1F
100
AcDbEntity
  8
0
  6
Continuous
 62
     7
100
AcDbLine
 10
-62.01208724563503
 20
126.8029253591591
 30
0.0
 11
-62.01208724563503
 21
123.6029253591592
 31
0.0
  0
LINE
  5
F8
330
1F
100
AcDbEntity
  8
0
  6
Continuous
 62
     7
100
AcDbLine
 10
-54.61208724563505
 20
123.0029253591591
 30
0.0
 11
-56.41208724563501
 21
121.2029253591592
 31
0.0
  0
LINE
  5
F9
330
1F
100
AcDbEntity
  8
0
  6
Continuous
 62
     7
100
AcDbLine
 10
-41.01208724563503
 20
138.0529253591592
 30
0.0
 11
-41.01208724563503
 21
139.8029253591592
 31
0.0
  0
LINE
  5
FA
330
1F
100
AcDbEntity
  8
0
  6
Continuous
 62
     7
100
AcDbLine
 10
-42.51208724563503
 20
132.9529253591592
 30
0.0
 11
-41.01208724563503
 21
132.9529253591592
 31
0.0
  0
LINE
  5
FB
330
1F
100
AcDbEntity
  8
0
  6
Continuous
 62
     7
100
AcDbLine
 10
-41.01208724563503
 20
129.4029253591591
 30
0.0
 11
-41.01208724563503
 21
132.9529253591592
 31
0.0
  0
LINE
  5
FC
330
1F
100
AcDbEntity
  8
0
  6
Continuous
 62
     7
100
AcDbLine
 10
-41.01208724563503
 20
138.0529253591592
 30
0.0
 11
-42.51208724563503
 21
138.0529253591592
 31
0.0
  0
LINE
  5
FD
330
1F
100
AcDbEntity
  8
0
  6
Continuous
 62
     7
100
AcDbLine
 10
-41.01208724563503
 20
126.8029253591591
 30
0.0
 11
-41.01208724563503
 21
129.4029253591591
 31
0.0
  0
LINE
  5
FE
330
1F
100
AcDbEntity
  8
0
  6
Continuous
 62
     7
100
AcDbLine
 10
-41.01208724563503
 20
132.9529253591592
 30
0.0
 11
-41.01208724563503
 21
138.0529253591592
 31
0.0
  0
LINE
  5
FF
330
1F
100
AcDbEntity
  8
0
  6
Continuous
 62
     7
100
AcDbLine
 10
-48.41208724563501
 20
123.0029253591591
 30
0.0
 11
-54.61208724563505
 21
123.0029253591591
 31
0.0
  0
LINE
  5
100
330
1F
100
AcDbEntity
  8
0
  6
Continuous
 62
     7
100
AcDbLine
 10
-41.01208724563503
 20
123.6029253591592
 30
0.0
 11
-41.01208724563503
 21
126.8029253591591
 31
0.0
  0
LINE
  5
101
330
1F
100
AcDbEntity
  8
0
  6
Continuous
 62
     7
100
AcDbLine
 10
-58.51208724563503
 20
140.2029253591592
 30
0.0
 11
-58.51208724563503
 21
128.8029253591592
 31
0.0
  0
LINE
  5
102
330
1F
100
AcDbEntity
  8
0
  6
Continuous
 62
     7
100
AcDbLine
 10
-59.61208724563505
 20
142.2029253591592
 30
0.0
 11
-43.41208724563501
 21
142.2029253591592
 31
0.0
  0
LINE
  5
103
330
1F
100
AcDbEntity
  8
0
  6
Continuous
 62
     7
100
AcDbLine
 10
-44.51208724563503
 20
140.2029253591592
 30
0.0
 11
-58.51208724563503
 21
140.2029253591592
 31
0.0
  0
LINE
  5
104
330
1F
100
AcDbEntity
  8
0
  6
Continuous
 62
     7
100
AcDbLine
 10
-121.062087245635
 20
218.672871761266
 30
0.0
 11
-121.062087245635
 21
219.5728717612658
 31
0.0
  0
LINE
  5
105
330
1F
100
AcDbEntity
  8
0
  6
Continuous
 62
     7
100
AcDbLine
 10
-62.01208724563503
 20
218.672871761266
 30
0.0
 11
-62.01208724563503
 21
219.5728717612658
 31
0.0
  0
LINE
  5
106
330
1F
100
AcDbEntity
  8
0
  6
Continuous
 62
     7
100
AcDbLine
 10
-41.01208724563503
 20
218.672871761266
 30
0.0
 11
-62.01208724563503
 21
218.672871761266
 31
0.0
  0
LINE
  5
107
330
1F
100
AcDbEntity
  8
0
  6
Continuous
 62
     7
100
AcDbLine
 10
-61.06208724563498
 20
218.672871761266
 30
0.0
 11
-61.06208724563498
 21
196.5728717612658
 31
0.0
  0
LINE
  5
108
330
1F
100
AcDbEntity
  8
0
  6
Continuous
 62
     7
100
AcDbLine
 10
-56.71208724563508
 20
206.1335121301902
 30
0.0
 11
-56.71208724563508
 21
206.4469065915014
 31
0.0
  0
LINE
  5
109
330
1F
100
AcDbEntity
  8
0
  6
Continuous
 62
     7
100
AcDbLine
 10
-56.71208724563508
 20
206.4469065915014
 30
0.0
 11
-56.71208724563508
 21
209.0988369310303
 31
0.0
  0
LINE
  5
10A
330
1F
100
AcDbEntity
  8
0
  6
Continuous
 62
     7
100
AcDbLine
 10
-56.71208724563508
 20
209.0988369310303
 30
0.0
 11
-56.71208724563508
 21
209.4122313923414
 31
0.0
  0
LINE
  5
10B
330
1F
100
AcDbEntity
  8
0
  6
Continuous
 62
     7
100
AcDbLine
 10
-46.31208724563498
 20
206.4469065915014
 30
0.0
 11
-46.31208724563498
 21
209.0988369310303
 31
0.0
  0
LINE
  5
10C
330
1F
100
AcDbEntity
  8
0
  6
Continuous
 62
     7
100
AcDbLine
 10
-46.31208724563498
 20
206.4469065915014
 30
0.0
 11
-46.31208724563498
 21
206.1335121301902
 31
0.0
  0
LINE
  5
10D
330
1F
100
AcDbEntity
  8
0
  6
Continuous
 62
     7
100
AcDbLine
 10
-45.41208724563501
 20
206.1335121301904
 30
0.0
 11
-45.41208724563501
 21
206.4469065915014
 31
0.0
  0
LINE
  5
10E
330
1F
100
AcDbEntity
  8
0
  6
Continuous
 62
     7
100
AcDbLine
 10
-45.41208724563501
 20
206.4469065915014
 30
0.0
 11
-45.41208724563501
 21
209.0988369310303
 31
0.0
  0
LINE
  5
10F
330
1F
100
AcDbEntity
  8
0
  6
Continuous
 62
     7
100
AcDbLine
 10
-45.41208724563501
 20
209.0988369310303
 30
0.0
 11
-45.41208724563501
 21
209.4122313923414
 31
0.0
  0
LINE
  5
110
330
1F
100
AcDbEntity
  8
0
  6
Continuous
 62
     7
100
AcDbLine
 10
-57.61208724563505
 20
209.4122313923414
 30
0.0
 11
-57.61208724563505
 21
209.0988369310303
 31
0.0
  0
LINE
  5
111
330
1F
100
AcDbEntity
  8
0
  6
Continuous
 62
     7
100
AcDbLine
 10
-57.61208724563505
 20
206.4469065915014
 30
0.0
 11
-57.61208724563505
 21
209.0988369310303
 31
0.0
  0
LINE
  5
112
330
1F
100
AcDbEntity
  8
0
  6
Continuous
 62
     7
100
AcDbLine
 10
-57.61208724563505
 20
206.4469065915014
 30
0.0
 11
-57.61208724563505
 21
206.1335121301904
 31
0.0
  0
LINE
  5
113
330
1F
100
AcDbEntity
  8
0
  6
Continuous
 62
     7
100
AcDbLine
 10
-41.96208724563508
 20
196.5728717612658
 30
0.0
 11
-41.96208724563508
 21
218.672871761266
 31
0.0
  0
LINE
  5
114
330
1F
100
AcDbEntity
  8
0
  6
Continuous
 62
     7
100
AcDbLine
 10
-41.96208724563508
 20
196.5728717612658
 30
0.0
 11
-61.06208724563498
 21
196.5728717612658
 31
0.0
  0
LINE
  5
115
330
1F
100
AcDbEntity
  8
0
  6
Continuous
 62
     7
100
AcDbLine
 10
-38.21208724563508
 20
129.5666634796102
 30
0.0
 11
-36.41208724563501
 21
129.5666634796102
 31
0.0
  0
LINE
  5
116
330
1F
100
AcDbEntity
  8
0
  6
Continuous
 62
     7
100
AcDbLine
 10
-38.21208724563508
 20
140.5666634796102
 30
0.0
 11
-37.51208724563503
 21
140.5666634796102
 31
0.0
  0
LINE
  5
117
330
1F
100
AcDbEntity
  8
0
  6
Continuous
 62
     7
100
AcDbLine
 10
-36.41208724563501
 20
133.5666634796102
 30
0.0
 11
-36.41208724563501
 21
129.5666634796102
 31
0.0
  0
LINE
  5
118
330
1F
100
AcDbEntity
  8
0
  6
Continuous
 62
     7
100
AcDbLine
 10
-38.21208724563508
 20
140.5666634796102
 30
0.0
 11
-38.21208724563508
 21
129.5666634796102
 31
0.0
  0
LINE
  5
119
330
1F
100
AcDbEntity
  8
0
  6
Continuous
 62
     7
100
AcDbLine
 10
-39.36208724563505
 20
138.5666634796102
 30
0.0
 11
-39.36208724563505
 21
131.5666634796102
 31
0.0
  0
LINE
  5
11A
330
1F
100
AcDbEntity
  8
0
  6
Continuous
 62
     7
100
AcDbLine
 10
-39.36208724563505
 20
131.5666634796102
 30
0.0
 11
-38.21208724563508
 21
131.5666634796102
 31
0.0
  0
LINE
  5
11B
330
1F
100
AcDbEntity
  8
0
  6
Continuous
 62
     7
100
AcDbLine
 10
-36.41208724563501
 20
132.6666634796101
 30
0.0
 11
-36.41208724563501
 21
137.46666347961
 31
0.0
  0
LINE
  5
11C
330
1F
100
AcDbEntity
  8
0
  6
Continuous
 62
     7
100
AcDbLine
 10
-39.36208724563505
 20
138.5666634796102
 30
0.0
 11
-38.36208724563505
 21
138.5666634796102
 31
0.0
  0
LINE
  5
11D
330
1F
100
AcDbEntity
  8
0
  6
Continuous
 62
     7
100
AcDbLine
 10
-66.61208724563505
 20
133.5666634796102
 30
0.0
 11
-66.61208724563505
 21
139.066663479613
 31
0.0
  0
LINE
  5
11E
330
1F
100
AcDbEntity
  8
0
  6
Continuous
 62
     7
100
AcDbLine
 10
-64.81208724563498
 20
140.5666634796102
 30
0.0
 11
-65.51208724563503
 21
140.5666634796101
 31
0.0
  0
LINE
  5
11F
330
1F
100
AcDbEntity
  8
0
  6
Continuous
 62
     7
100
AcDbLine
 10
-64.81208724563498
 20
129.5666634796102
 30
0.0
 11
-64.81208724563498
 21
140.5666634796102
 31
0.0
  0
LINE
  5
120
330
1F
100
AcDbEntity
  8
0
  6
Continuous
 62
     7
100
AcDbLine
 10
-66.61208724563505
 20
129.5666634796102
 30
0.0
 11
-66.61208724563505
 21
133.5666634796102
 31
0.0
  0
LINE
  5
121
330
1F
100
AcDbEntity
  8
0
  6
Continuous
 62
     7
100
AcDbLine
 10
-64.81208724563498
 20
129.5666634796102
 30
0.0
 11
-66.61208724563505
 21
129.5666634796102
 31
0.0
  0
LINE
  5
122
330
1F
100
AcDbEntity
  8
0
  6
Continuous
 62
     7
100
AcDbLine
 10
-67.81208724563498
 20
137.8261339324453
 30
0.0
 11
-67.81208724563498
 21
139.066663479613
 31
0.0
  0
LINE
  5
123
330
1F
100
AcDbEntity
  8
0
  6
Continuous
 62
     7
100
AcDbLine
 10
-67.81208724563498
 20
126.7020833844262
 30
0.0
 11
-67.81208724563498
 21
133.3166634796102
 31
0.0
  0
LINE
  5
124
330
1F
100
AcDbEntity
  8
0
  6
Continuous
 62
     7
100
AcDbLine
 10
-67.81208724563498
 20
133.3166634796102
 30
0.0
 11
-67.81208724563498
 21
137.8261339324453
 31
0.0
  0
LINE
  5
125
330
1F
100
AcDbEntity
  8
0
  6
Continuous
 62
     7
100
AcDbLine
 10
-67.81208724563498
 20
119.703545509474
 30
0.0
 11
-67.81208724563498
 21
126.7020833844262
 31
0.0
  0
LINE
  5
126
330
1F
100
AcDbEntity
  8
0
  6
Continuous
 62
     7
100
AcDbLine
 10
-67.81208724563498
 20
119.0720739125734
 30
0.0
 11
-67.81208724563498
 21
119.703545509474
 31
0.0
  0
LINE
  5
127
330
1F
100
AcDbEntity
  8
0
  6
Continuous
 62
     7
100
AcDbLine
 10
-67.81208724563498
 20
119.0720739125734
 30
0.0
 11
-67.81208724563498
 21
117.4029253591594
 31
0.0
  0
LINE
  5
128
330
1F
100
AcDbEntity
  8
0
  6
Continuous
 62
     7
100
AcDbLine
 10
-65.11208724563505
 20
114.7029253591594
 30
0.0
 11
-60.03054818155283
 21
114.7029253591594
 31
0.0
  0
LINE
  5
129
330
1F
100
AcDbEntity
  8
0
  6
Continuous
 62
     7
100
AcDbLine
 10
-66.21208724563508
 20
125.6769967628113
 30
0.0
 11
-66.21208724563508
 21
122.0601959091004
 31
0.0
  0
LINE
  5
12A
330
1F
100
AcDbEntity
  8
0
  6
Continuous
 62
     7
100
AcDbLine
 10
-66.21208724563508
 20
125.6769967628113
 30
0.0
 11
-66.21208724563508
 21
129.5666634796101
 31
0.0
  0
LINE
  5
12B
330
1F
100
AcDbEntity
  8
0
  6
Continuous
 62
     7
100
AcDbLine
 10
-66.21208724563508
 20
122.0601959091004
 30
0.0
 11
-66.21208724563508
 21
122.0283707452188
 31
0.0
  0
LINE
  5
12C
330
1F
100
AcDbEntity
  8
0
  6
Continuous
 62
     7
100
AcDbLine
 10
-66.61208724563505
 20
126.7020833844262
 30
0.0
 11
-66.61208724563505
 21
129.5666634796102
 31
0.0
  0
LINE
  5
12D
330
1F
100
AcDbEntity
  8
0
  6
Continuous
 62
     7
100
AcDbLine
 10
-66.61208724563505
 20
119.703545509474
 30
0.0
 11
-66.61208724563505
 21
121.1927082372153
 31
0.0
  0
LINE
  5
12E
330
1F
100
AcDbEntity
  8
0
  6
Continuous
 62
     7
100
AcDbLine
 10
-66.61208724563505
 20
121.1927082372153
 30
0.0
 11
-66.61208724563505
 21
126.7020833844262
 31
0.0
  0
LINE
  5
12F
330
1F
100
AcDbEntity
  8
0
  6
Continuous
 62
     7
100
AcDbLine
 10
-66.61208724563505
 20
133.5666634796102
 30
0.0
 11
-66.61208724563505
 21
137.8261339324446
 31
0.0
  0
LINE
  5
130
330
1F
100
AcDbEntity
  8
0
  6
Continuous
 62
     7
100
AcDbLine
 10
-66.61208724563505
 20
137.8261339324446
 30
0.0
 11
-66.61208724563505
 21
139.066663479613
 31
0.0
  0
LINE
  5
131
330
1F
100
AcDbEntity
  8
0
  6
Continuous
 62
     7
100
AcDbLine
 10
-65.01208724563503
 20
122.0601959091004
 30
0.0
 11
-65.01208724563503
 21
122.0283707452188
 31
0.0
  0
LINE
  5
132
330
1F
100
AcDbEntity
  8
0
  6
Continuous
 62
     7
100
AcDbLine
 10
-65.01208724563503
 20
125.6769967628113
 30
0.0
 11
-65.01208724563503
 21
122.0601959091004
 31
0.0
  0
LINE
  5
133
330
1F
100
AcDbEntity
  8
0
  6
Continuous
 62
     7
100
AcDbLine
 10
-65.01208724563503
 20
125.6769967628113
 30
0.0
 11
-65.01208724563503
 21
129.5666634796101
 31
0.0
  0
LINE
  5
134
330
1F
100
AcDbEntity
  8
0
  6
Continuous
 62
     7
100
AcDbLine
 10
-43.70224837288595
 20
112.9721336597362
 30
0.0
 11
-43.65186112124775
 21
113.3126895288373
 31
0.0
  0
LINE
  5
135
330
1F
100
AcDbEntity
  8
0
  6
Continuous
 62
     7
100
AcDbLine
 10
-43.6065248018665
 20
113.6191073060843
 30
0.0
 11
-43.55613755022819
 21
113.959663175184
 31
0.0
  0
LINE
  5
136
330
1F
100
AcDbEntity
  8
0
  6
Continuous
 62
     7
100
AcDbLine
 10
-43.65186112124775
 20
113.3126895288373
 30
0.0
 11
-43.60217810080826
 21
113.3373408955233
 31
0.0
  0
LINE
  5
137
330
1F
100
AcDbEntity
  8
0
  6
Continuous
 62
     7
100
AcDbLine
 10
-43.51080123084705
 20
114.2660809524321
 30
0.0
 11
-43.43774581951789
 21
114.759845710156
 31
0.0
  0
LINE
  5
138
330
1F
100
AcDbEntity
  8
0
  6
Continuous
 62
     7
100
AcDbLine
 10
-43.55613755022819
 20
113.959663175184
 30
0.0
 11
-43.50645452978893
 21
113.9843145418712
 31
0.0
  0
LINE
  5
139
330
1F
100
AcDbEntity
  8
0
  6
Continuous
 62
     7
100
AcDbLine
 10
-66.61208724563505
 20
130.8244554111099
 30
0.0
 11
-66.61208724563505
 21
133.5666634796102
 31
0.0
  0
LINE
  5
13A
330
1F
100
AcDbEntity
  8
0
  6
Continuous
 62
     7
100
AcDbLine
 10
-66.61208724563505
 20
130.8244554111099
 30
0.0
 11
-66.61208724563505
 21
130.5531834775442
 31
0.0
  0
LINE
  5
13B
330
1F
100
AcDbEntity
  8
0
  6
Continuous
 62
     7
100
AcDbLine
 10
-66.61208724563505
 20
130.5531834775442
 30
0.0
 11
-66.61208724563505
 21
129.5666634796102
 31
0.0
  0
LINE
  5
13C
330
1F
100
AcDbEntity
  8
0
  6
Continuous
 62
     7
100
AcDbLine
 10
-46.55625552144136
 20
110.1066587004465
 30
0.0
 11
-56.4679189698287
 21
110.1066587004465
 31
0.0
  0
LINE
  5
13D
330
1F
100
AcDbEntity
  8
0
  6
Continuous
 62
     7
100
AcDbLine
 10
-56.30582980533654
 20
110.8780038320705
 30
0.0
 11
-46.71834468593363
 21
110.8780038320705
 31
0.0
  0
LINE
  5
13E
330
1F
100
AcDbEntity
  8
0
  6
Continuous
 62
     7
100
AcDbLine
 10
-59.51337326042301
 20
114.2660809524321
 30
0.0
 11
-59.58642867175217
 21
114.759845710156
 31
0.0
  0
LINE
  5
13F
330
1F
100
AcDbEntity
  8
0
  6
Continuous
 62
     7
100
AcDbLine
 10
-37.91208724563501
 20
114.7029253591594
 30
0.0
 11
-42.99362630971734
 21
114.7029253591594
 31
0.0
  0
LINE
  5
140
330
1F
100
AcDbEntity
  8
0
  6
Continuous
 62
     7
100
AcDbLine
 10
-36.41208724563501
 20
119.0720739125734
 30
0.0
 11
-36.41208724563501
 21
117.4029253591591
 31
0.0
  0
LINE
  5
141
330
1F
100
AcDbEntity
  8
0
  6
Continuous
 62
     7
100
AcDbLine
 10
-35.21208724563508
 20
119.0720739125734
 30
0.0
 11
-35.21208724563508
 21
117.4029253591594
 31
0.0
  0
LINE
  5
142
330
1F
100
AcDbEntity
  8
0
  6
Continuous
 62
     7
100
AcDbLine
 10
-36.81208724563498
 20
122.0601959091004
 30
0.0
 11
-36.81208724563498
 21
122.0283707452188
 31
0.0
  0
LINE
  5
143
330
1F
100
AcDbEntity
  8
0
  6
Continuous
 62
     7
100
AcDbLine
 10
-36.81208724563498
 20
125.6769967628113
 30
0.0
 11
-36.81208724563498
 21
122.0601959091004
 31
0.0
  0
LINE
  5
144
330
1F
100
AcDbEntity
  8
0
  6
Continuous
 62
     7
100
AcDbLine
 10
-35.21208724563508
 20
119.0720739125734
 30
0.0
 11
-35.21208724563508
 21
119.703545509474
 31
0.0
  0
LINE
  5
145
330
1F
100
AcDbEntity
  8
0
  6
Continuous
 62
     7
100
AcDbLine
 10
-35.21208724563508
 20
119.703545509474
 30
0.0
 11
-35.21208724563508
 21
126.7020833844262
 31
0.0
  0
LINE
  5
146
330
1F
100
AcDbEntity
  8
0
  6
Continuous
 62
     7
100
AcDbLine
 10
-35.21208724563508
 20
126.7020833844262
 30
0.0
 11
-35.21208724563508
 21
133.3166634796102
 31
0.0
  0
LINE
  5
147
330
1F
100
AcDbEntity
  8
0
  6
Continuous
 62
     7
100
AcDbLine
 10
-35.21208724563508
 20
133.3166634796102
 30
0.0
 11
-35.21208724563508
 21
137.8261339324453
 31
0.0
  0
LINE
  5
148
330
1F
100
AcDbEntity
  8
0
  6
Continuous
 62
     7
100
AcDbLine
 10
-35.21208724563508
 20
137.8261339324453
 30
0.0
 11
-35.21208724563508
 21
139.066663479613
 31
0.0
  0
LINE
  5
149
330
1F
100
AcDbEntity
  8
0
  6
Continuous
 62
     7
100
AcDbLine
 10
-36.81208724563498
 20
125.6769967628113
 30
0.0
 11
-36.81208724563498
 21
129.5666634796102
 31
0.0
  0
LINE
  5
14A
330
1F
100
AcDbEntity
  8
0
  6
Continuous
 62
     7
100
AcDbLine
 10
-36.41208724563501
 20
119.0720739125734
 30
0.0
 11
-36.41208724563501
 21
119.703545509474
 31
0.0
  0
LINE
  5
14B
330
1F
100
AcDbEntity
  8
0
  6
Continuous
 62
     7
100
AcDbLine
 10
-36.41208724563501
 20
130.8244554111099
 30
0.0
 11
-36.41208724563501
 21
130.5531834775442
 31
0.0
  0
LINE
  5
14C
330
1F
100
AcDbEntity
  8
0
  6
Continuous
 62
     7
100
AcDbLine
 10
-36.41208724563501
 20
133.5666634796102
 30
0.0
 11
-36.41208724563501
 21
137.8261339324446
 31
0.0
  0
LINE
  5
14D
330
1F
100
AcDbEntity
  8
0
  6
Continuous
 62
     7
100
AcDbLine
 10
-36.41208724563501
 20
130.8244554111099
 30
0.0
 11
-36.41208724563501
 21
133.5666634796102
 31
0.0
  0
LINE
  5
14E
330
1F
100
AcDbEntity
  8
0
  6
Continuous
 62
     7
100
AcDbLine
 10
-36.41208724563501
 20
119.703545509474
 30
0.0
 11
-36.41208724563501
 21
121.1927082372174
 31
0.0
  0
LINE
  5
14F
330
1F
100
AcDbEntity
  8
0
  6
Continuous
 62
     7
100
AcDbLine
 10
-36.41208724563501
 20
129.5666634796102
 30
0.0
 11
-36.41208724563501
 21
130.5531834775442
 31
0.0
  0
LINE
  5
150
330
1F
100
AcDbEntity
  8
0
  6
Continuous
 62
     7
100
AcDbLine
 10
-36.41208724563501
 20
126.7020833844262
 30
0.0
 11
-36.41208724563501
 21
129.5666634796102
 31
0.0
  0
LINE
  5
151
330
1F
100
AcDbEntity
  8
0
  6
Continuous
 62
     7
100
AcDbLine
 10
-36.41208724563501
 20
121.1927082372174
 30
0.0
 11
-36.41208724563501
 21
126.7020833844262
 31
0.0
  0
LINE
  5
152
330
1F
100
AcDbEntity
  8
0
  6
Continuous
 62
     7
100
AcDbLine
 10
-36.41208724563501
 20
137.8261339324446
 30
0.0
 11
-36.41208724563501
 21
139.066663479613
 31
0.0
  0
LINE
  5
153
330
1F
100
AcDbEntity
  8
0
  6
Continuous
 62
     7
100
AcDbLine
 10
-38.01208724563503
 20
122.0601959091004
 30
0.0
 11
-38.01208724563503
 21
122.0283707452188
 31
0.0
  0
LINE
  5
154
330
1F
100
AcDbEntity
  8
0
  6
Continuous
 62
     7
100
AcDbLine
 10
-38.01208724563503
 20
125.6769967628113
 30
0.0
 11
-38.01208724563503
 21
122.0601959091004
 31
0.0
  0
LINE
  5
155
330
1F
100
AcDbEntity
  8
0
  6
Continuous
 62
     7
100
AcDbLine
 10
-38.01208724563503
 20
129.5666634796102
 30
0.0
 11
-38.01208724563503
 21
125.6769967628113
 31
0.0
  0
LINE
  5
156
330
1F
100
AcDbEntity
  8
0
  6
Continuous
 62
     7
100
AcDbLine
 10
-59.37231337002231
 20
113.3126895288373
 30
0.0
 11
-59.4219963904618
 21
113.3373408955233
 31
0.0
  0
LINE
  5
157
330
1F
100
AcDbEntity
  8
0
  6
Continuous
 62
     7
100
AcDbLine
 10
-44.58573325431598
 20
111.3964199564801
 30
0.0
 11
-58.43844123695408
 21
111.3964199564801
 31
0.0
  0
LINE
  5
158
330
1F
100
AcDbEntity
  8
0
  6
Continuous
 62
     7
100
AcDbLine
 10
-59.74851783624456
 20
113.988500578532
 30
0.0
 11
-59.47624588074405
 21
112.1482769223085
 31
0.0
  0
LINE
  5
159
330
1F
100
AcDbEntity
  8
0
  6
Continuous
 62
     7
100
AcDbLine
 10
-43.70075856211474
 20
112.8755595848699
 30
0.0
 11
-43.70224837288595
 21
112.9721336597362
 31
0.0
  0
LINE
  5
15A
330
1F
100
AcDbEntity
  8
0
  6
Continuous
 62
     7
100
AcDbLine
 10
-43.2756566550255
 20
113.988500578532
 30
0.0
 11
-43.54792861052601
 21
112.1482769223085
 31
0.0
  0
LINE
  5
15B
330
1F
100
AcDbEntity
  8
0
  6
Continuous
 62
     7
100
AcDbLine
 10
-59.32329538739396
 20
112.6903672491751
 30
0.0
 11
-43.70087910387611
 21
112.6903672491751
 31
0.0
  0
LINE
  5
15C
330
1F
100
AcDbEntity
  8
0
  6
Continuous
 62
     7
100
AcDbLine
 10
-43.9683776114814
 20
112.0433936028284
 30
0.0
 11
-59.05579687978866
 21
112.0433936028284
 31
0.0
  0
LINE
  5
15D
330
1F
100
AcDbEntity
  8
0
  6
Continuous
 62
     7
100
AcDbLine
 10
-59.32192611838423
 20
112.9721336597362
 30
0.0
 11
-59.37231337002231
 21
113.3126895288373
 31
0.0
  0
LINE
  5
15E
330
1F
100
AcDbEntity
  8
0
  6
Continuous
 62
     7
100
AcDbLine
 10
-59.32341592915532
 20
112.8755595848699
 30
0.0
 11
-59.32192611838423
 21
112.9721336597362
 31
0.0
  0
LINE
  5
15F
330
1F
100
AcDbEntity
  8
0
  6
Continuous
 62
     7
100
AcDbLine
 10
-43.60217810080826
 20
113.3373408955233
 30
0.0
 11
-43.6065248018665
 21
113.6191073060843
 31
0.0
  0
LINE
  5
160
330
1F
100
AcDbEntity
  8
0
  6
Continuous
 62
     7
100
AcDbLine
 10
-59.41764968940356
 20
113.6191073060843
 30
0.0
 11
-59.46803694104199
 21
113.959663175184
 31
0.0
  0
LINE
  5
161
330
1F
100
AcDbEntity
  8
0
  6
Continuous
 62
     7
100
AcDbLine
 10
-59.46803694104199
 20
113.959663175184
 30
0.0
 11
-59.51771996148113
 21
113.9843145418712
 31
0.0
  0
LINE
  5
162
330
1F
100
AcDbEntity
  8
0
  6
Continuous
 62
     7
100
AcDbLine
 10
-59.4219963904618
 20
113.3373408955233
 30
0.0
 11
-59.41764968940356
 21
113.6191073060843
 31
0.0
  0
LINE
  5
163
330
1F
100
AcDbEntity
  8
0
  6
Continuous
 62
     7
100
AcDbLine
 10
-59.51771996148113
 20
113.9843145418712
 30
0.0
 11
-59.51337326042301
 21
114.2660809524321
 31
0.0
  0
LINE
  5
164
330
1F
100
AcDbEntity
  8
0
  6
Continuous
 62
     7
100
AcDbLine
 10
-59.51771996148113
 20
113.9843145418712
 30
0.0
 11
-43.50645452978893
 21
113.9843145418712
 31
0.0
  0
LINE
  5
165
330
1F
100
AcDbEntity
  8
0
  6
Continuous
 62
     7
100
AcDbLine
 10
-43.50645452978893
 20
113.9843145418712
 30
0.0
 11
-43.51080123084705
 21
114.2660809524321
 31
0.0
  0
LINE
  5
166
330
1F
100
AcDbEntity
  8
0
  6
Continuous
 62
     7
100
AcDbLine
 10
-42.99362630971734
 20
114.7029253591594
 30
0.0
 11
-43.00550804753834
 21
114.7029253591584
 31
0.0
  0
LINE
  5
167
330
1F
100
AcDbEntity
  8
0
  6
Continuous
 62
     7
100
AcDbLine
 10
-60.03054818155283
 20
115.9029253591591
 30
0.0
 11
-60.03054818155283
 21
114.7029253591594
 31
0.0
  0
LINE
  5
168
330
1F
100
AcDbEntity
  8
0
  6
Continuous
 62
     7
100
AcDbLine
 10
-60.03054818155283
 20
114.7029253591594
 30
0.0
 11
-60.01866644373172
 21
114.7029253591584
 31
0.0
  0
LINE
  5
169
330
1F
100
AcDbEntity
  8
0
  6
Continuous
 62
     7
100
AcDbLine
 10
-66.61208724563505
 20
132.6666634796101
 30
0.0
 11
-66.61208724563505
 21
137.46666347961
 31
0.0
  0
LINE
  5
16A
330
1F
100
AcDbEntity
  8
0
  6
Continuous
 62
     7
100
AcDbLine
 10
-63.66208724563501
 20
138.5666634796102
 30
0.0
 11
-64.81208724563498
 21
138.5666634796102
 31
0.0
  0
LINE
  5
16B
330
1F
100
AcDbEntity
  8
0
  6
Continuous
 62
     7
100
AcDbLine
 10
-63.66208724563501
 20
131.5666634796102
 30
0.0
 11
-63.66208724563501
 21
138.5666634796102
 31
0.0
  0
LINE
  5
16C
330
1F
100
AcDbEntity
  8
0
  6
Continuous
 62
     7
100
AcDbLine
 10
-63.66208724563501
 20
131.5666634796102
 30
0.0
 11
-64.81208724563498
 21
131.5666634796102
 31
0.0
  0
LINE
  5
16D
330
1F
100
AcDbEntity
  8
0
  6
Continuous
 62
     7
100
AcDbLine
 10
-144.1815722009634
 20
239.7150770767549
 30
0.0
 11
-144.1817275021822
 21
239.7150770767549
 31
0.0
  0
LINE
  5
16E
330
1F
100
AcDbEntity
  8
0
  6
Continuous
 62
     7
100
AcDbLine
 10
-144.6099988963798
 20
240.3917541291997
 30
0.0
 11
-148.0941761318727
 21
244.5440348668339
 31
0.0
  0
LINE
  5
16F
330
1F
100
AcDbEntity
  8
0
  6
Continuous
 62
     7
100
AcDbLine
 10
-131.3138097208149
 20
235.8233897585378
 30
0.0
 11
-131.3620872456351
 21
235.8223536447127
 31
0.0
  0
LINE
  5
170
330
1F
100
AcDbEntity
  8
0
  6
Continuous
 62
     7
100
AcDbLine
 10
-135.0003913342131
 20
253.4270498867707
 30
0.0
 11
-132.7118291272501
 21
256.6954554409508
 31
0.0
  0
LINE
  5
171
330
1F
100
AcDbEntity
  8
0
  6
Continuous
 62
     7
100
AcDbLine
 10
-152.3870087727238
 20
257.2393702900008
 30
0.0
 11
-153.1583539043478
 21
256.3201169582588
 31
0.0
  0
LINE
  5
172
330
1F
100
AcDbEntity
  8
0
  6
Continuous
 62
     7
100
AcDbLine
 10
-151.5868262377531
 20
256.5679374200318
 30
0.0
 11
-151.246270368653
 21
256.2821771158748
 31
0.0
  0
LINE
  5
173
330
1F
100
AcDbEntity
  8
0
  6
Continuous
 62
     7
100
AcDbLine
 10
-151.8685926483141
 20
256.5432860533448
 30
0.0
 11
-151.5868262377531
 21
256.5679374200318
 31
0.0
  0
LINE
  5
174
330
1F
100
AcDbEntity
  8
0
  6
Continuous
 62
     7
100
AcDbLine
 10
-151.8932440150012
 20
256.8250524639068
 30
0.0
 11
-151.8685926483141
 21
256.5432860533448
 31
0.0
  0
LINE
  5
175
330
1F
100
AcDbEntity
  8
0
  6
Continuous
 62
     7
100
AcDbLine
 10
-152.3870087727238
 20
257.2393702900008
 30
0.0
 11
-151.8932440150012
 21
256.8250524639068
 31
0.0
  0
LINE
  5
176
330
1F
100
AcDbEntity
  8
0
  6
Continuous
 62
     7
100
AcDbLine
 10
-151.2216190019659
 20
256.0004107053137
 30
0.0
 11
-150.9398525914049
 21
256.0250620719997
 31
0.0
  0
LINE
  5
177
330
1F
100
AcDbEntity
  8
0
  6
Continuous
 62
     7
100
AcDbLine
 10
-151.246270368653
 20
256.2821771158748
 30
0.0
 11
-151.2216190019659
 21
256.0004107053137
 31
0.0
  0
LINE
  5
178
330
1F
100
AcDbEntity
  8
0
  6
Continuous
 62
     7
100
AcDbLine
 10
-149.2765120262621
 20
253.0628648700668
 30
0.0
 11
-153.1583539043478
 21
256.3201169582588
 31
0.0
  0
LINE
  5
179
330
1F
100
AcDbEntity
  8
0
  6
Continuous
 62
     7
100
AcDbLine
 10
-150.9398525914049
 20
256.0250620719997
 30
0.0
 11
-150.5992967223052
 21
255.7393017678437
 31
0.0
  0
LINE
  5
17A
330
1F
100
AcDbEntity
  8
0
  6
Continuous
 62
     7
100
AcDbLine
 10
-150.5992967223052
 20
255.7393017678437
 30
0.0
 11
-150.5746453556191
 21
255.4575353572818
 31
0.0
  0
LINE
  5
17B
330
1F
100
AcDbEntity
  8
0
  6
Continuous
 62
     7
100
AcDbLine
 10
-149.952323075957
 20
255.1964264198118
 30
0.0
 11
-150.2928789450581
 21
255.4821867239678
 31
0.0
  0
LINE
  5
17C
330
1F
100
AcDbEntity
  8
0
  6
Continuous
 62
     7
100
AcDbLine
 10
-150.2928789450581
 20
255.4821867239678
 30
0.0
 11
-150.3894530199243
 21
255.4737375872267
 31
0.0
  0
LINE
  5
17D
330
1F
100
AcDbEntity
  8
0
  6
Continuous
 62
     7
100
AcDbLine
 10
-148.9989316523621
 20
254.3964360279048
 30
0.0
 11
-149.2806980629231
 21
254.3717846612188
 31
0.0
  0
LINE
  5
17E
330
1F
100
AcDbEntity
  8
0
  6
Continuous
 62
     7
100
AcDbLine
 10
-147.3620872456351
 20
251.4633913001397
 30
0.0
 11
-148.562087245635
 21
251.4633913001397
 31
0.0
  0
LINE
  5
17F
330
1F
100
AcDbEntity
  8
0
  6
Continuous
 62
     7
100
AcDbLine
 10
-146.9081322257372
 20
251.4633913001397
 30
0.0
 11
-147.3620872456351
 21
251.4633913001397
 31
0.0
  0
LINE
  5
180
330
1F
100
AcDbEntity
  8
0
  6
Continuous
 62
     7
100
AcDbLine
 10
-148.562087245635
 20
251.5307759838297
 30
0.0
 11
-148.562087245635
 21
251.4633913001397
 31
0.0
  0
LINE
  5
181
330
1F
100
AcDbEntity
  8
0
  6
Continuous
 62
     7
100
AcDbLine
 10
-131.3620872456351
 20
252.0728717612658
 30
0.0
 11
-128.1983491251841
 21
252.0728717612658
 31
0.0
  0
LINE
  5
182
330
1F
100
AcDbEntity
  8
0
  6
Continuous
 62
     7
100
AcDbLine
 10
-150.5746453556191
 20
255.4575353572818
 30
0.0
 11
-150.3894530199243
 21
255.4737375872267
 31
0.0
  0
LINE
  5
183
330
1F
100
AcDbEntity
  8
0
  6
Continuous
 62
     7
100
AcDbLine
 10
-135.3620872456351
 20
249.4104945918269
 30
0.0
 11
-135.3620872456351
 21
252.2798970140687
 31
0.0
  0
LINE
  5
184
330
1F
100
AcDbEntity
  8
0
  6
Continuous
 62
     7
100
AcDbLine
 10
-132.8620872456351
 20
248.4104945918257
 30
0.0
 11
-132.8620872456351
 21
250.5728717612658
 31
0.0
  0
LINE
  5
185
330
1F
100
AcDbEntity
  8
0
  6
Continuous
 62
     7
100
AcDbLine
 10
-132.8620872456351
 20
248.4104945918257
 30
0.0
 11
-134.3620872456351
 21
248.4104945918257
 31
0.0
  0
LINE
  5
186
330
1F
100
AcDbEntity
  8
0
  6
Continuous
 62
     7
100
AcDbLine
 10
-148.5051668946381
 20
253.9821182018098
 30
0.0
 11
-148.9989316523621
 21
254.3964360279048
 31
0.0
  0
LINE
  5
187
330
1F
100
AcDbEntity
  8
0
  6
Continuous
 62
     7
100
AcDbLine
 10
-148.5620872456348
 20
245.8296100862067
 30
0.0
 11
-148.562087245635
 21
251.4633913001397
 31
0.0
  0
LINE
  5
188
330
1F
100
AcDbEntity
  8
0
  6
Continuous
 62
     7
100
AcDbLine
 10
-149.2806980629231
 20
254.3717846612188
 30
0.0
 11
-149.3053494296102
 21
254.6535510717797
 31
0.0
  0
LINE
  5
189
330
1F
100
AcDbEntity
  8
0
  6
Continuous
 62
     7
100
AcDbLine
 10
-149.3053494296102
 20
254.6535510717797
 30
0.0
 11
-149.6459052987099
 21
254.9393113759368
 31
0.0
  0
LINE
  5
18A
330
1F
100
AcDbEntity
  8
0
  6
Continuous
 62
     7
100
AcDbLine
 10
-149.6459052987099
 20
254.9393113759368
 30
0.0
 11
-149.9276717092708
 21
254.9146600092497
 31
0.0
  0
LINE
  5
18B
330
1F
100
AcDbEntity
  8
0
  6
Continuous
 62
     7
100
AcDbLine
 10
-149.9276717092708
 20
254.9146600092497
 30
0.0
 11
-149.952323075957
 21
255.1964264198118
 31
0.0
  0
LINE
  5
18C
330
1F
100
AcDbEntity
  8
0
  6
Continuous
 62
     7
100
AcDbLine
 10
-36.81208724563498
 20
240.90071772281
 30
0.0
 11
-36.81208724563498
 21
244.0715653065617
 31
0.0
  0
LINE
  5
18D
330
1F
100
AcDbEntity
  8
0
  6
Continuous
 62
     7
100
AcDbLine
 10
-63.66208724563501
 20
252.5728717612658
 30
0.0
 11
-63.66208724563501
 21
259.5728717612658
 31
0.0
  0
LINE
  5
18E
330
1F
100
AcDbEntity
  8
0
  6
Continuous
 62
     7
100
AcDbLine
 10
-63.66208724563501
 20
259.5728717612658
 30
0.0
 11
-64.81208724563498
 21
259.5728717612658
 31
0.0
  0
LINE
  5
18F
330
1F
100
AcDbEntity
  8
0
  6
Continuous
 62
     7
100
AcDbLine
 10
-63.66208724563501
 20
252.5728717612658
 30
0.0
 11
-64.81208724563498
 21
252.5728717612658
 31
0.0
  0
LINE
  5
190
330
1F
100
AcDbEntity
  8
0
  6
Continuous
 62
     7
100
AcDbLine
 10
-64.81208724563498
 20
261.5728717612658
 30
0.0
 11
-66.61208724563505
 21
261.5728717612658
 31
0.0
  0
LINE
  5
191
330
1F
100
AcDbEntity
  8
0
  6
Continuous
 62
     7
100
AcDbLine
 10
-64.81208724563498
 20
251.4633913001397
 30
0.0
 11
-64.81208724563498
 21
261.5728717612658
 31
0.0
  0
LINE
  5
192
330
1F
100
AcDbEntity
  8
0
  6
Continuous
 62
     7
100
AcDbLine
 10
-39.36208724563505
 20
259.5728717612658
 30
0.0
 11
-39.36208724563505
 21
252.5728717612658
 31
0.0
  0
LINE
  5
193
330
1F
100
AcDbEntity
  8
0
  6
Continuous
 62
     7
100
AcDbLine
 10
-39.36208724563505
 20
259.5728717612658
 30
0.0
 11
-38.21208724563508
 21
259.5728717612658
 31
0.0
  0
LINE
  5
194
330
1F
100
AcDbEntity
  8
0
  6
Continuous
 62
     7
100
AcDbLine
 10
-39.36208724563505
 20
252.5728717612658
 30
0.0
 11
-38.21208724563508
 21
252.5728717612658
 31
0.0
  0
LINE
  5
195
330
1F
100
AcDbEntity
  8
0
  6
Continuous
 62
     7
100
AcDbLine
 10
-38.21208724563508
 20
261.5728717612658
 30
0.0
 11
-36.41208724563501
 21
261.5728717612658
 31
0.0
  0
LINE
  5
196
330
1F
100
AcDbEntity
  8
0
  6
Continuous
 62
     7
100
AcDbLine
 10
-38.21208724563508
 20
261.5728717612658
 30
0.0
 11
-38.21208724563508
 21
251.4633913001397
 31
0.0
  0
LINE
  5
197
330
1F
100
AcDbEntity
  8
0
  6
Continuous
 62
     7
100
AcDbLine
 10
-66.61208724563505
 20
261.7292584791146
 30
0.0
 11
-67.81208724563498
 21
261.7292584791146
 31
0.0
  0
LINE
  5
198
330
1F
100
AcDbEntity
  8
0
  6
Continuous
 62
     7
100
AcDbLine
 10
-60.03054818155283
 20
251.4633913001397
 30
0.0
 11
-67.60122161316178
 21
251.4633913001389
 31
0.0
  0
LINE
  5
199
330
1F
100
AcDbEntity
  8
0
  6
Continuous
 62
     7
100
AcDbLine
 10
-65.01208724563503
 20
231.2930463213541
 30
0.0
 11
-66.21208724563508
 21
231.2930463213541
 31
0.0
  0
LINE
  5
19A
330
1F
100
AcDbEntity
  8
0
  6
Continuous
 62
     7
100
AcDbLine
 10
-67.81208724563498
 20
261.7292584791146
 30
0.0
 11
-67.81208724563498
 21
241.88393491767
 31
0.0
  0
LINE
  5
19B
330
1F
100
AcDbEntity
  8
0
  6
Continuous
 62
     7
100
AcDbLine
 10
-66.21208724563508
 20
231.2930463213541
 30
0.0
 11
-66.21208724563508
 21
239.5150770767548
 31
0.0
  0
LINE
  5
19C
330
1F
100
AcDbEntity
  8
0
  6
Continuous
 62
     7
100
AcDbLine
 10
-64.22026125205718
 20
246.0633913001397
 30
0.0
 11
-64.45404246599003
 21
245.8296100862067
 31
0.0
  0
LINE
  5
19D
330
1F
100
AcDbEntity
  8
0
  6
Continuous
 62
     7
100
AcDbLine
 10
-38.01208724563503
 20
239.9404405319338
 30
0.0
 11
-37.94590354895354
 21
239.9404405319338
 31
0.0
  0
LINE
  5
19E
330
1F
100
AcDbEntity
  8
0
  6
Continuous
 62
     7
100
AcDbLine
 10
-65.11208724563505
 20
246.0633913001397
 30
0.0
 11
-37.91208724563501
 21
246.0633913001397
 31
0.0
  0
LINE
  5
19F
330
1F
100
AcDbEntity
  8
0
  6
Continuous
 62
     7
100
AcDbLine
 10
-36.41208724563501
 20
261.7292584791146
 30
0.0
 11
-35.21208724563508
 21
261.7292584791146
 31
0.0
  0
LINE
  5
1A0
330
1F
100
AcDbEntity
  8
0
  6
Continuous
 62
     7
100
AcDbLine
 10
-42.99362630971734
 20
251.4633913001397
 30
0.0
 11
-35.42295287810839
 21
251.4633913001389
 31
0.0
  0
LINE
  5
1A1
330
1F
100
AcDbEntity
  8
0
  6
Continuous
 62
     7
100
AcDbLine
 10
-38.01208724563503
 20
244.5728717612664
 30
0.0
 11
-37.3133937003397
 21
244.5728717612664
 31
0.0
  0
LINE
  5
1A2
330
1F
100
AcDbEntity
  8
0
  6
Continuous
 62
     7
100
AcDbLine
 10
-35.21208724563508
 20
241.88393491767
 30
0.0
 11
-35.21208724563508
 21
261.7292584791146
 31
0.0
  0
LINE
  5
1A3
330
1F
100
AcDbEntity
  8
0
  6
Continuous
 62
     7
100
AcDbLine
 10
-38.80391323921299
 20
246.0633913001397
 30
0.0
 11
-38.57013202528003
 21
245.8296100862067
 31
0.0
  0
LINE
  5
1A4
330
1F
100
AcDbEntity
  8
0
  6
Continuous
 62
     7
100
AcDbLine
 10
-38.01208724563503
 20
231.2930463213541
 30
0.0
 11
-36.81208724563498
 21
231.2930463213541
 31
0.0
  0
LINE
  5
1A5
330
1F
100
AcDbEntity
  8
0
  6
Continuous
 62
     7
100
AcDbLine
 10
-36.81208724563498
 20
231.2930463213541
 30
0.0
 11
-36.81208724563498
 21
239.5150770767548
 31
0.0
  0
LINE
  5
1A6
330
1F
100
AcDbEntity
  8
0
  6
Continuous
 62
     7
100
AcDbLine
 10
-36.41208724563501
 20
243.6715653065617
 30
0.0
 11
-36.41208724563501
 21
241.1150770767549
 31
0.0
  0
LINE
  5
1A7
330
1F
100
AcDbEntity
  8
0
  6
Continuous
 62
     7
100
AcDbLine
 10
-35.21208724563508
 20
241.88393491767
 30
0.0
 11
-35.21208724563508
 21
241.1150770767549
 31
0.0
  0
LINE
  5
1A8
330
1F
100
AcDbEntity
  8
0
  6
Continuous
 62
     7
100
AcDbLine
 10
-37.28455680590719
 20
244.5440348668339
 30
0.0
 11
-36.41208724563501
 21
243.6715653065617
 31
0.0
  0
LINE
  5
1A9
330
1F
100
AcDbEntity
  8
0
  6
Continuous
 62
     7
100
AcDbLine
 10
-37.28455680590719
 20
244.5440348668339
 30
0.0
 11
-38.57013202528003
 21
245.8296100862067
 31
0.0
  0
LINE
  5
1AA
330
1F
100
AcDbEntity
  8
0
  6
Continuous
 62
     7
100
AcDbLine
 10
-44.60648982024043
 20
256.5679374200318
 30
0.0
 11
-44.4225415802008
 21
256.5679374200318
 31
0.0
  0
LINE
  5
1AB
330
1F
100
AcDbEntity
  8
0
  6
Continuous
 62
     7
100
AcDbLine
 10
-56.30582980533654
 20
257.2393702900008
 30
0.0
 11
-46.71834468593363
 21
257.2393702900008
 31
0.0
  0
LINE
  5
1AC
330
1F
100
AcDbEntity
  8
0
  6
Continuous
 62
     7
100
AcDbLine
 10
-43.97938945839894
 20
256.0250620719997
 30
0.0
 11
-43.90628948699873
 21
256.0250620719997
 31
0.0
  0
LINE
  5
1AD
330
1F
100
AcDbEntity
  8
0
  6
Continuous
 62
     7
100
AcDbLine
 10
-46.55625552144136
 20
256.3201169582588
 30
0.0
 11
-56.4679189698287
 21
256.3201169582588
 31
0.0
  0
LINE
  5
1AE
330
1F
100
AcDbEntity
  8
0
  6
Continuous
 62
     7
100
AcDbLine
 10
-43.00550804753834
 20
251.5307759838297
 30
0.0
 11
-60.01866644373172
 21
251.5307759838297
 31
0.0
  0
LINE
  5
1AF
330
1F
100
AcDbEntity
  8
0
  6
Continuous
 62
     7
100
AcDbLine
 10
-60.01866644373172
 20
251.5307759838297
 30
0.0
 11
-59.47624588074405
 21
254.6069958612887
 31
0.0
  0
LINE
  5
1B0
330
1F
100
AcDbEntity
  8
0
  6
Continuous
 62
     7
100
AcDbLine
 10
-59.47624588074405
 20
254.6069958612887
 30
0.0
 11
-59.32341592915532
 21
255.4737375872267
 31
0.0
  0
LINE
  5
1B1
330
1F
100
AcDbEntity
  8
0
  6
Continuous
 62
     7
100
AcDbLine
 10
-60.03054818155283
 20
251.4633913001397
 30
0.0
 11
-60.01866644373172
 21
251.5307759838297
 31
0.0
  0
LINE
  5
1B2
330
1F
100
AcDbEntity
  8
0
  6
Continuous
 62
     7
100
AcDbLine
 10
-58.60163291106926
 20
256.5679374200318
 30
0.0
 11
-58.41768467102975
 21
256.5679374200318
 31
0.0
  0
LINE
  5
1B3
330
1F
100
AcDbEntity
  8
0
  6
Continuous
 62
     7
100
AcDbLine
 10
-59.3181001857804
 20
255.4821867239678
 30
0.0
 11
-59.32192611838423
 21
255.4821867239678
 31
0.0
  0
LINE
  5
1B4
330
1F
100
AcDbEntity
  8
0
  6
Continuous
 62
     7
100
AcDbLine
 10
-59.11788500427133
 20
256.0250620719997
 30
0.0
 11
-59.04478503287101
 21
256.0250620719997
 31
0.0
  0
LINE
  5
1B5
330
1F
100
AcDbEntity
  8
0
  6
Continuous
 62
     7
100
AcDbLine
 10
-59.32341592915532
 20
255.4737375872267
 30
0.0
 11
-59.32192611838423
 21
255.4821867239678
 31
0.0
  0
LINE
  5
1B6
330
1F
100
AcDbEntity
  8
0
  6
Continuous
 62
     7
100
AcDbLine
 10
-43.00550804753834
 20
251.5307759838297
 30
0.0
 11
-43.54792861052601
 21
254.6069958612887
 31
0.0
  0
LINE
  5
1B7
330
1F
100
AcDbEntity
  8
0
  6
Continuous
 62
     7
100
AcDbLine
 10
-43.54792861052601
 20
254.6069958612887
 30
0.0
 11
-43.70075856211474
 21
255.4737375872267
 31
0.0
  0
LINE
  5
1B8
330
1F
100
AcDbEntity
  8
0
  6
Continuous
 62
     7
100
AcDbLine
 10
-43.70075856211474
 20
255.4737375872267
 30
0.0
 11
-43.70224837288595
 21
255.4821867239678
 31
0.0
  0
LINE
  5
1B9
330
1F
100
AcDbEntity
  8
0
  6
Continuous
 62
     7
100
AcDbLine
 10
-43.70224837288595
 20
255.4821867239678
 30
0.0
 11
-43.70607430548967
 21
255.4821867239678
 31
0.0
  0
LINE
  5
1BA
330
1F
100
AcDbEntity
  8
0
  6
Continuous
 62
     7
100
AcDbLine
 10
-42.99362630971734
 20
251.4633913001397
 30
0.0
 11
-43.00550804753834
 21
251.5307759838297
 31
0.0
  0
LINE
  5
1BB
330
1F
100
AcDbEntity
  8
0
  6
Continuous
 62
     7
100
AcDbLine
 10
-66.61208724563505
 20
243.6715653065617
 30
0.0
 11
-66.61208724563505
 21
241.1150770767549
 31
0.0
  0
LINE
  5
1BC
330
1F
100
AcDbEntity
  8
0
  6
Continuous
 62
     7
100
AcDbLine
 10
-66.21208724563508
 20
240.90071772281
 30
0.0
 11
-66.21208724563508
 21
244.0715653065617
 31
0.0
  0
LINE
  5
1BD
330
1F
100
AcDbEntity
  8
0
  6
Continuous
 62
     7
100
AcDbLine
 10
-67.81208724563498
 20
241.88393491767
 30
0.0
 11
-67.81208724563498
 21
241.1150770767549
 31
0.0
  0
LINE
  5
1BE
330
1F
100
AcDbEntity
  8
0
  6
Continuous
 62
     7
100
AcDbLine
 10
-65.01208724563503
 20
244.5728717612664
 30
0.0
 11
-65.71078079093036
 21
244.5728717612664
 31
0.0
  0
LINE
  5
1BF
330
1F
100
AcDbEntity
  8
0
  6
Continuous
 62
     7
100
AcDbLine
 10
-65.73961768536299
 20
244.5440348668339
 30
0.0
 11
-64.45404246599003
 21
245.8296100862067
 31
0.0
  0
LINE
  5
1C0
330
1F
100
AcDbEntity
  8
0
  6
Continuous
 62
     7
100
AcDbLine
 10
-65.73961768536299
 20
244.5440348668339
 30
0.0
 11
-66.61208724563505
 21
243.6715653065617
 31
0.0
  0
LINE
  5
1C1
330
1F
100
AcDbEntity
  8
0
  6
Continuous
 62
     7
100
AcDbLine
 10
-46.31208724563498
 20
209.4122313923414
 30
0.0
 11
-46.31208724563498
 21
209.0988369310303
 31
0.0
  0
LINE
  5
1C2
330
1F
100
AcDbEntity
  8
0
  6
Continuous
 62
     7
100
AcDbLine
 10
-66.61208724563505
 20
119.0720739125734
 30
0.0
 11
-66.61208724563505
 21
117.4029253591591
 31
0.0
  0
LINE
  5
1C3
330
1F
100
AcDbEntity
  8
0
  6
Continuous
 62
     7
100
AcDbLine
 10
-66.61208724563505
 20
119.0720739125734
 30
0.0
 11
-66.61208724563505
 21
119.703545509474
 31
0.0
  0
LINE
  5
1C4
330
1F
100
AcDbEntity
  8
0
  6
Continuous
 62
     7
100
AcDbLine
 10
-59.4219963904618
 20
113.3373408955233
 30
0.0
 11
-43.60217810080826
 21
113.3373408955233
 31
0.0
  0
LINE
  5
1C5
330
1F
100
AcDbEntity
  8
1
  6
Continuous
 62
     2
100
AcDbLine
 10
-50.81208724563498
 20
124.1761753111089
 30
0.0
 11
-50.81208724563498
 21
125.6296754072094
 31
0.0
  0
LINE
  5
1C6
330
1F
100
AcDbEntity
  8
1
  6
Continuous
 62
     2
100
AcDbLine
 10
-50.26211500028603
 20
124.3203259832733
 30
0.0
 11
-50.66211500028601
 21
124.089556752504
 31
0.0
  0
LINE
  5
1C7
330
1F
100
AcDbEntity
  8
1
  6
Continuous
 62
     2
100
AcDbLine
 10
-50.61208724563494
 20
124.3493163189536
 30
0.0
 11
-50.36205949098394
 21
124.493563100483
 31
0.0
  0
LINE
  5
1C8
330
1F
100
AcDbEntity
  8
1
  6
Continuous
 62
     2
100
AcDbLine
 10
-50.61208724563494
 20
124.8029253591592
 30
0.0
 11
-50.61208724563494
 21
124.3493163189536
 31
0.0
  0
LINE
  5
1C9
330
1F
100
AcDbEntity
  8
1
  6
Continuous
 62
     2
100
AcDbLine
 10
-50.31208724563498
 20
124.8029253591592
 30
0.0
 11
-50.61208724563494
 21
124.8029253591592
 31
0.0
  0
LINE
  5
1CA
330
1F
100
AcDbEntity
  8
1
  6
Continuous
 62
     2
100
AcDbLine
 10
-50.61208724563505
 20
125.0029253591591
 30
0.0
 11
-50.31208724563498
 21
125.0029253591591
 31
0.0
  0
LINE
  5
1CB
330
1F
100
AcDbEntity
  8
1
  6
Continuous
 62
     2
100
AcDbLine
 10
-50.61208724563494
 20
125.4565343993647
 30
0.0
 11
-50.61208724563505
 21
125.0029253591591
 31
0.0
  0
LINE
  5
1CC
330
1F
100
AcDbEntity
  8
1
  6
Continuous
 62
     2
100
AcDbLine
 10
-50.36205949098394
 20
125.3122876178353
 30
0.0
 11
-50.61208724563494
 21
125.4565343993647
 31
0.0
  0
LINE
  5
1CD
330
1F
100
AcDbEntity
  8
1
  6
Continuous
 62
     2
100
AcDbLine
 10
-50.66211500028601
 20
125.7162939658142
 30
0.0
 11
-50.26211500028603
 21
125.4855247350452
 31
0.0
  0
LINE
  5
1CE
330
1F
100
AcDbEntity
  8
1
  6
Continuous
 62
     2
100
AcDbLine
 10
-52.81208724563498
 20
124.4069445418782
 30
0.0
 11
-52.81208724563498
 21
125.3989061764402
 31
0.0
  0
LINE
  5
1CF
330
1F
100
AcDbEntity
  8
1
  6
Continuous
 62
     2
100
AcDbLine
 10
-52.61208724563494
 20
125.3989061764402
 30
0.0
 11
-52.61208724563494
 21
124.4069445418782
 31
0.0
  0
LINE
  5
1D0
330
1F
100
AcDbEntity
  8
1
  6
Continuous
 62
     2
100
AcDbLine
 10
-51.66205949098401
 20
123.6857105986578
 30
0.0
 11
-52.31203173633298
 21
124.0606945863592
 31
0.0
  0
LINE
  5
1D1
330
1F
100
AcDbEntity
  8
1
  6
Continuous
 62
     2
100
AcDbLine
 10
-52.21208724563508
 20
124.233931703569
 30
0.0
 11
-51.56211500028599
 21
123.8589477158677
 31
0.0
  0
LINE
  5
1D2
330
1F
100
AcDbEntity
  8
1
  6
Continuous
 62
     2
100
AcDbLine
 10
-52.21208724563508
 20
125.6296754072094
 30
0.0
 11
-52.21208724563508
 21
124.233931703569
 31
0.0
  0
LINE
  5
1D3
330
1F
100
AcDbEntity
  8
1
  6
Continuous
 62
     2
100
AcDbLine
 10
-52.41208724563501
 20
124.233931703569
 30
0.0
 11
-52.41208724563501
 21
125.6296754072094
 31
0.0
  0
LINE
  5
1D4
330
1F
100
AcDbEntity
  8
1
  6
Continuous
 62
     2
100
AcDbLine
 10
-51.16041735072213
 20
125.9120354846409
 30
0.0
 11
-51.51208724563503
 21
125.3029253591592
 31
0.0
  0
LINE
  5
1D5
330
1F
100
AcDbEntity
  8
1
  6
Continuous
 62
     2
100
AcDbLine
 10
-51.01208724563503
 20
123.9454060803397
 30
0.0
 11
-51.01208724563503
 21
125.8722905527694
 31
0.0
  0
LINE
  5
1D6
330
1F
100
AcDbEntity
  8
1
  6
Continuous
 62
     2
100
AcDbLine
 10
-51.21208724563508
 20
125.4225406014298
 30
0.0
 11
-51.21208724563508
 21
123.9454060803397
 31
0.0
  0
LINE
  5
1D7
330
1F
100
AcDbEntity
  8
1
  6
Continuous
 62
     2
100
AcDbLine
 10
-51.81208724563498
 20
124.4072008809491
 30
0.0
 11
-51.81208724563498
 21
125.4225406014298
 31
0.0
  0
LINE
  5
1D8
330
1F
100
AcDbEntity
  8
1
  6
Continuous
 62
     2
100
AcDbLine
 10
-52.01208724563503
 20
125.8722905527694
 30
0.0
 11
-52.01208724563503
 21
124.4072008809491
 31
0.0
  0
LINE
  5
1D9
330
1F
100
AcDbEntity
  8
1
  6
Continuous
 62
     2
100
AcDbLine
 10
-51.86375714054793
 20
125.9120354846409
 30
0.0
 11
-51.51208724563503
 21
125.3029253591592
 31
0.0
  0
LINE
  5
1DA
330
1F
100
AcDbEntity
  8
1
  6
Continuous
 62
     2
100
AcDbLine
 10
-51.51208724563503
 20
123.4029253591591
 30
0.0
 11
-54.03701782817757
 21
124.8596160798567
 31
0.0
  0
LINE
  5
1DB
330
1F
100
AcDbEntity
  8
1
  6
Continuous
 62
     2
100
AcDbLine
 10
-48.98715666309249
 20
124.8596160798567
 30
0.0
 11
-51.51208724563503
 21
123.4029253591591
 31
0.0
  0
LINE
  5
1DC
330
1F
100
AcDbEntity
  8
1
  6
Continuous
 62
     2
100
AcDbLine
 10
-51.51208724563503
 20
126.4029253591591
 30
0.0
 11
-48.98715666309249
 21
124.9462346384616
 31
0.0
  0
LINE
  5
1DD
330
1F
100
AcDbEntity
  8
1
  6
Continuous
 62
     2
100
AcDbLine
 10
-54.03701782817757
 20
124.9462346384616
 30
0.0
 11
-51.51208724563503
 21
126.4029253591591
 31
0.0
  0
LINE
  5
1DE
330
1F
100
AcDbEntity
  8
1
  6
Continuous
 62
     2
100
AcDbLine
 10
-51.55538851582458
 20
124.9779253591592
 30
0.0
 11
-51.81208724563498
 21
125.4225406014298
 31
0.0
  0
LINE
  5
1DF
330
1F
100
AcDbEntity
  8
1
  6
Continuous
 62
     2
100
AcDbLine
 10
-51.21208724563508
 20
125.4225406014298
 30
0.0
 11
-51.46878597544594
 21
124.9779253591592
 31
0.0
  0
LINE
  5
1E0
330
1F
100
AcDbEntity
  8
1
  6
Continuous
 62
     7
100
AcDbLine
 10
-41.01208724563503
 20
126.8029253591591
 30
0.0
 11
-62.01208724563503
 21
126.8029253591591
 31
0.0
  0
LINE
  5
1E1
330
1F
100
AcDbEntity
  8
1
  6
Continuous
 62
     7
100
AcDbLine
 10
-54.66208724563501
 20
133.4554453591592
 30
0.0
 11
-54.66208724563501
 21
130.5029253591591
 31
0.0
  0
LINE
  5
1E2
330
1F
100
AcDbEntity
  8
1
  6
Continuous
 62
     7
100
AcDbLine
 10
-57.51208724563503
 20
133.4554453591592
 30
0.0
 11
-54.66208724563501
 21
133.4554453591592
 31
0.0
  0
LINE
  5
1E3
330
1F
100
AcDbEntity
  8
2
  6
Continuous
 62
     7
100
AcDbLine
 10
-56.08708724563508
 20
133.4529253591592
 30
0.0
 11
-56.08708724563508
 21
132.4529253591592
 31
0.0
  0
LINE
  5
1E4
330
1F
100
AcDbEntity
  8
1
  6
Continuous
 62
     7
100
AcDbLine
 10
-48.36208724563505
 20
133.4554453591592
 30
0.0
 11
-45.51208724563503
 21
133.4554453591592
 31
0.0
  0
LINE
  5
1E5
330
1F
100
AcDbEntity
  8
1
  6
Continuous
 62
     7
100
AcDbLine
 10
-48.36208724563505
 20
130.5029253591591
 30
0.0
 11
-48.36208724563505
 21
133.4554453591592
 31
0.0
  0
LINE
  5
1E6
330
1F
100
AcDbEntity
  8
2
  6
Continuous
 62
     7
100
AcDbLine
 10
-46.93708724563498
 20
132.4529253591592
 30
0.0
 11
-46.93708724563498
 21
133.4554453591592
 31
0.0
  0
LINE
  5
1E7
330
1F
100
AcDbEntity
  8
2
  6
Continuous
 62
     7
100
AcDbLine
 10
-53.042087245635
 20
138.3504053591592
 30
0.0
 11
-53.042087245635
 21
139.3529253591592
 31
0.0
  0
LINE
  5
1E8
330
1F
100
AcDbEntity
  8
2
  6
Continuous
 62
     7
100
AcDbLine
 10
-52.02208724563502
 20
138.3504053591592
 30
0.0
 11
-52.02208724563502
 21
139.3529253591592
 31
0.0
  0
LINE
  5
1E9
330
1F
100
AcDbEntity
  8
2
  6
Continuous
 62
     7
100
AcDbLine
 10
-49.98208724563506
 20
138.3504053591592
 30
0.0
 11
-49.98208724563506
 21
139.3529253591592
 31
0.0
  0
LINE
  5
1EA
330
1F
100
AcDbEntity
  8
2
  6
Continuous
 62
     7
100
AcDbLine
 10
-51.00208724563504
 20
138.3504053591592
 30
0.0
 11
-51.00208724563504
 21
139.3529253591592
 31
0.0
  0
LINE
  5
1EB
330
1F
100
AcDbEntity
  8
2
  6
Continuous
 62
     7
100
AcDbLine
 10
-55.08208724563508
 20
138.3529253591592
 30
0.0
 11
-55.08208724563508
 21
139.3529253591592
 31
0.0
  0
LINE
  5
1EC
330
1F
100
AcDbEntity
  8
2
  6
Continuous
 62
     7
100
AcDbLine
 10
-54.06208724563498
 20
138.3529253591592
 30
0.0
 11
-54.06208724563498
 21
139.3529253591592
 31
0.0
  0
LINE
  5
1ED
330
1F
100
AcDbEntity
  8
2
  6
Continuous
 62
     7
100
AcDbLine
 10
-47.94208724563509
 20
138.3504053591592
 30
0.0
 11
-47.94208724563509
 21
139.3529253591592
 31
0.0
  0
LINE
  5
1EE
330
1F
100
AcDbEntity
  8
2
  6
Continuous
 62
     7
100
AcDbLine
 10
-48.96208724563508
 20
138.3504053591592
 30
0.0
 11
-48.96208724563508
 21
139.3529253591592
 31
0.0
  0
LINE
  5
1EF
330
1F
100
AcDbEntity
  8
0
  6
Continuous
 62
     7
100
AcDbLine
 10
-49.51208724563503
 20
130.5029253591591
 30
0.0
 11
-49.51208724563503
 21
129.2029253591592
 31
0.0
  0
LINE
  5
1F0
330
1F
100
AcDbEntity
  8
0
  6
Continuous
 62
     7
100
AcDbLine
 10
-45.51208724563503
 20
139.3529253591592
 30
0.0
 11
-57.51208724563503
 21
139.3529253591592
 31
0.0
  0
LINE
  5
1F1
330
1F
100
AcDbEntity
  8
0
  6
Continuous
 62
     7
100
AcDbLine
 10
-49.51208724563503
 20
129.2029253591592
 30
0.0
 11
-53.51208724563503
 21
129.2029253591592
 31
0.0
  0
LINE
  5
1F2
330
1F
100
AcDbEntity
  8
0
  6
Continuous
 62
     7
100
AcDbLine
 10
-48.36208724563505
 20
130.5029253591591
 30
0.0
 11
-49.51208724563503
 21
130.5029253591591
 31
0.0
  0
LINE
  5
1F3
330
1F
100
AcDbEntity
  8
0
  6
Continuous
 62
     7
100
AcDbLine
 10
-53.51208724563503
 20
130.5029253591591
 30
0.0
 11
-54.66208724563501
 21
130.5029253591591
 31
0.0
  0
LINE
  5
1F4
330
1F
100
AcDbEntity
  8
0
  6
Continuous
 62
     7
100
AcDbLine
 10
-53.51208724563503
 20
129.2029253591592
 30
0.0
 11
-53.51208724563503
 21
130.5029253591591
 31
0.0
  0
LINE
  5
1F5
330
1F
100
AcDbEntity
  8
0
  6
Continuous
 62
     7
100
AcDbLine
 10
-45.51208724563503
 20
132.4529253591592
 30
0.0
 11
-48.36208724563505
 21
132.4529253591592
 31
0.0
  0
LINE
  5
1F6
330
1F
100
AcDbEntity
  8
0
  6
Continuous
 62
     7
100
AcDbLine
 10
-54.66208724563501
 20
132.4529253591592
 30
0.0
 11
-57.51208724563503
 21
132.4529253591592
 31
0.0
  0
LINE
  5
1F7
330
1F
100
AcDbEntity
  8
0
  6
Continuous
 62
     7
100
AcDbLine
 10
-45.51208724563503
 20
132.4529253591592
 30
0.0
 11
-45.51208724563503
 21
139.3529253591592
 31
0.0
  0
LINE
  5
1F8
330
1F
100
AcDbEntity
  8
0
  6
Continuous
 62
     7
100
AcDbLine
 10
-57.51208724563503
 20
139.3529253591592
 30
0.0
 11
-57.51208724563503
 21
132.4529253591592
 31
0.0
  0
LINE
  5
1F9
330
1F
100
AcDbEntity
  8
1
  6
Continuous
 62
     7
100
AcDbLine
 10
-121.062087245635
 20
218.172871761266
 30
0.0
 11
-121.062087245635
 21
218.672871761266
 31
0.0
  0
LINE
  5
1FA
330
1F
100
AcDbEntity
  8
1
  6
Continuous
 62
     7
100
AcDbLine
 10
-133.8620872456351
 20
218.172871761266
 30
0.0
 11
-133.8620872456351
 21
218.672871761266
 31
0.0
  0
LINE
  5
1FB
330
1F
100
AcDbEntity
  8
1
  6
Continuous
 62
     7
100
AcDbLine
 10
-124.062087245635
 20
207.9728717612659
 30
0.0
 11
-121.062087245635
 21
204.9728717612659
 31
0.0
  0
LINE
  5
1FC
330
1F
100
AcDbEntity
  8
1
  6
Continuous
 62
     7
100
AcDbLine
 10
-124.062087245635
 20
214.9728717612659
 30
0.0
 11
-121.062087245635
 21
217.9728717612659
 31
0.0
  0
LINE
  5
1FD
330
1F
100
AcDbEntity
  8
1
  6
Continuous
 62
     7
100
AcDbLine
 10
-124.062087245635
 20
214.9728717612659
 30
0.0
 11
-124.062087245635
 21
207.9728717612659
 31
0.0
  0
LINE
  5
1FE
330
1F
100
AcDbEntity
  8
1
  6
Continuous
 62
     7
100
AcDbLine
 10
-124.062087245635
 20
213.9728717612659
 30
0.0
 11
-133.8620872456351
 21
213.9728717612659
 31
0.0
  0
LINE
  5
1FF
330
1F
100
AcDbEntity
  8
1
  6
Continuous
 62
     7
100
AcDbLine
 10
-124.062087245635
 20
214.9728717612659
 30
0.0
 11
-133.8620872456351
 21
214.9728717612659
 31
0.0
  0
LINE
  5
200
330
1F
100
AcDbEntity
  8
1
  6
Continuous
 62
     7
100
AcDbLine
 10
-130.8620872456351
 20
215.9728717612659
 30
0.0
 11
-131.8620872456351
 21
215.9728717612659
 31
0.0
  0
LINE
  5
201
330
1F
100
AcDbEntity
  8
1
  6
Continuous
 62
     7
100
AcDbLine
 10
-131.8620872456351
 20
215.9728717612659
 30
0.0
 11
-131.8620872456351
 21
216.9728717612659
 31
0.0
  0
LINE
  5
202
330
1F
100
AcDbEntity
  8
1
  6
Continuous
 62
     7
100
AcDbLine
 10
-131.8620872456351
 20
216.9728717612659
 30
0.0
 11
-130.8620872456351
 21
216.9728717612659
 31
0.0
  0
LINE
  5
203
330
1F
100
AcDbEntity
  8
1
  6
Continuous
 62
     7
100
AcDbLine
 10
-130.8620872456351
 20
216.9728717612659
 30
0.0
 11
-130.8620872456351
 21
215.9728717612659
 31
0.0
  0
LINE
  5
204
330
1F
100
AcDbEntity
  8
0
  6
Continuous
 62
     7
100
AcDbLine
 10
-134.8620872456351
 20
205.0728717612658
 30
0.0
 11
-134.3620872456351
 21
205.0728717612658
 31
0.0
  0
LINE
  5
205
330
1F
100
AcDbEntity
  8
0
  6
Continuous
 62
     7
100
AcDbLine
 10
-133.8620872456351
 20
211.7728717612658
 30
0.0
 11
-133.8620872456351
 21
217.9728717612659
 31
0.0
  0
LINE
  5
206
330
1F
100
AcDbEntity
  8
0
  6
Continuous
 62
     7
100
AcDbLine
 10
-134.8620872456351
 20
211.7728717612658
 30
0.0
 11
-133.8620872456351
 21
211.7728717612658
 31
0.0
  0
LINE
  5
207
330
1F
100
AcDbEntity
  8
0
  6
Continuous
 62
     7
100
AcDbLine
 10
-134.3620872456351
 20
209.8728717612658
 30
0.0
 11
-134.8620872456351
 21
209.8728717612658
 31
0.0
  0
LINE
  5
208
330
1F
100
AcDbEntity
  8
0
  6
Continuous
 62
     7
100
AcDbLine
 10
-134.3620872456351
 20
199.5728717612658
 30
0.0
 11
-134.8620872456351
 21
199.5728717612658
 31
0.0
  0
LINE
  5
209
330
1F
100
AcDbEntity
  8
0
  6
Continuous
 62
     7
100
AcDbLine
 10
-121.062087245635
 20
218.172871761266
 30
0.0
 11
-133.8620872456351
 21
218.172871761266
 31
0.0
  0
LINE
  5
20A
330
1F
100
AcDbEntity
  8
0
  6
Continuous
 62
     7
100
AcDbLine
 10
-121.062087245635
 20
217.9728717612659
 30
0.0
 11
-133.8620872456351
 21
217.9728717612659
 31
0.0
  0
LINE
  5
20B
330
1F
100
AcDbEntity
  8
0
  6
Continuous
 62
     7
100
AcDbLine
 10
-121.062087245635
 20
196.5728717612658
 30
0.0
 11
-134.3620872456351
 21
196.5728717612658
 31
0.0
  0
LINE
  5
20C
330
1F
100
AcDbEntity
  8
0
  6
Continuous
 62
     7
100
AcDbLine
 10
-134.3620872456351
 20
196.5728717612658
 30
0.0
 11
-134.3620872456351
 21
199.5728717612658
 31
0.0
  0
LINE
  5
20D
330
1F
100
AcDbEntity
  8
0
  6
Continuous
 62
     7
100
AcDbLine
 10
-134.3620872456351
 20
205.0728717612658
 30
0.0
 11
-134.3620872456351
 21
209.8728717612658
 31
0.0
  0
LINE
  5
20E
330
1F
100
AcDbEntity
  8
0
  6
Continuous
 62
     7
100
AcDbLine
 10
-136.4620872456351
 20
196.5728717612658
 30
0.0
 11
-134.8620872456351
 21
196.5728717612658
 31
0.0
  0
LINE
  5
20F
330
1F
100
AcDbEntity
  8
0
  6
Continuous
 62
     7
100
AcDbLine
 10
-136.4620872456351
 20
196.5728717612658
 30
0.0
 11
-136.4620872456351
 21
206.1335121301902
 31
0.0
  0
LINE
  5
210
330
1F
100
AcDbEntity
  8
0
  6
Continuous
 62
     7
100
AcDbLine
 10
-136.4620872456351
 20
206.1335121301902
 30
0.0
 11
-136.462087245636
 21
209.4122313923433
 31
0.0
  0
LINE
  5
211
330
1F
100
AcDbEntity
  8
0
  6
Continuous
 62
     7
100
AcDbLine
 10
-136.462087245636
 20
209.4122313923433
 30
0.0
 11
-136.4620872456351
 21
218.672871761266
 31
0.0
  0
LINE
  5
212
330
1F
100
AcDbEntity
  8
0
  6
Continuous
 62
     7
100
AcDbLine
 10
-138.162087245635
 20
209.0988369310303
 30
0.0
 11
-138.1620872456426
 21
206.4469065914866
 31
0.0
  0
LINE
  5
213
330
1F
100
AcDbEntity
  8
0
  6
Continuous
 62
     7
100
AcDbLine
 10
-134.8620872456351
 20
218.672871761266
 30
0.0
 11
-134.8620872456351
 21
196.5728717612658
 31
0.0
  0
LINE
  5
214
330
1F
100
AcDbEntity
  8
0
  6
Continuous
 62
     7
100
AcDbLine
 10
-121.062087245635
 20
196.5728717612658
 30
0.0
 11
-121.062087245635
 21
217.9728717612659
 31
0.0
  0
LINE
  5
215
330
1F
100
AcDbEntity
  8
0
  6
Continuous
 62
     7
100
AcDbLine
 10
-121.062087245635
 20
218.672871761266
 30
0.0
 11
-123.4620872456351
 21
218.672871761266
 31
0.0
  0
LINE
  5
216
330
1F
100
AcDbEntity
  8
0
  6
Continuous
 62
     7
100
AcDbLine
 10
-136.4620872456351
 20
218.672871761266
 30
0.0
 11
-139.662087245635
 21
218.672871761266
 31
0.0
  0
LINE
  5
217
330
1F
100
AcDbEntity
  8
0
  6
Continuous
 62
     7
100
AcDbLine
 10
-123.4620872456351
 20
218.672871761266
 30
0.0
 11
-136.4620872456351
 21
218.672871761266
 31
0.0
  0
LINE
  5
218
330
1F
100
AcDbEntity
  8
0
  6
Continuous
 62
     7
100
AcDbLine
 10
-142.0620872456351
 20
218.672871761266
 30
0.0
 11
-139.662087245635
 21
218.672871761266
 31
0.0
  0
LINE
  5
219
102
{ACAD_REACTORS
330
3D1
102
}
330
1F
100
AcDbEntity
  8
1
  6
Continuous
 62
     7
100
AcDbLine
 10
-48.51208724563503
 20
152.3490777818659
 30
0.0
 11
-39.26208724563503
 21
147.0085877918619
 31
0.0
  0
LINE
  5
21A
102
{ACAD_REACTORS
330
3D1
102
}
330
1F
100
AcDbEntity
  8
1
  6
Continuous
 62
     7
100
AcDbLine
 10
-36.26208724563503
 20
141.8124353691552
 30
0.0
 11
-36.26208724563503
 21
139.066663479613
 31
0.0
  0
LINE
  5
21B
102
{ACAD_REACTORS
330
3D1
102
}
330
1F
100
AcDbEntity
  8
1
  6
Continuous
 62
     7
100
AcDbLine
 10
-63.76208724563503
 20
147.0085877918619
 30
0.0
 11
-54.51208724563503
 21
152.3490777818659
 31
0.0
  0
LINE
  5
21C
102
{ACAD_REACTORS
330
3D2
102
}
330
1F
100
AcDbEntity
  8
1
  6
Continuous
 62
     7
100
AcDbLine
 10
-62.21304913995823
 20
115.9029253591591
 30
0.0
 11
-63.76208724563503
 21
116.7972629264566
 31
0.0
  0
LINE
  5
21D
102
{ACAD_REACTORS
330
3D5
102
}
330
1F
100
AcDbEntity
  8
1
  6
Continuous
 62
     7
100
AcDbLine
 10
-66.76208724563514
 20
223.2728717612659
 30
0.0
 11
-36.26208724563503
 21
223.2728717612659
 31
0.0
  0
LINE
  5
21E
102
{ACAD_REACTORS
330
3D5
102
}
330
1F
100
AcDbEntity
  8
1
  6
Continuous
 62
     7
100
AcDbLine
 10
-36.26208724563503
 20
223.2728717612659
 30
0.0
 11
-36.26208724563503
 21
219.5728717612658
 31
0.0
  0
LINE
  5
21F
102
{ACAD_REACTORS
330
3D5
102
}
330
1F
100
AcDbEntity
  8
1
  6
Continuous
 62
     7
100
AcDbLine
 10
-36.26208724563503
 20
219.5728717612658
 30
0.0
 11
-66.76208724563514
 21
219.5728717612658
 31
0.0
  0
LINE
  5
220
102
{ACAD_REACTORS
330
3D5
102
}
330
1F
100
AcDbEntity
  8
1
  6
Continuous
 62
     7
100
AcDbLine
 10
-66.76208724563514
 20
219.5728717612658
 30
0.0
 11
-66.76208724563514
 21
223.2728717612659
 31
0.0
  0
LINE
  5
221
330
1F
100
AcDbEntity
  8
0
  6
Continuous
 62
     7
100
AcDbLine
 10
-41.01208724563503
 20
219.5728717612658
 30
0.0
 11
-41.01208724563503
 21
218.672871761266
 31
0.0
  0
LINE
  5
222
330
1F
100
AcDbEntity
  8
1
  6
Continuous
 62
     7
100
AcDbLine
 10
-67.81208724563498
 20
139.066663479613
 30
0.0
 11
-66.76208724563514
 21
139.066663479613
 31
0.0
  0
LINE
  5
223
102
{ACAD_REACTORS
330
3D1
102
}
330
1F
100
AcDbEntity
  8
1
  6
Continuous
 62
     7
100
AcDbLine
 10
-66.76208724563514
 20
139.066663479613
 30
0.0
 11
-66.61208724563505
 21
139.066663479613
 31
0.0
  0
LINE
  5
224
102
{ACAD_REACTORS
330
3D1
102
}
330
1F
100
AcDbEntity
  8
0
  6
Continuous
 62
     7
100
AcDbLine
 10
-66.61208724563505
 20
139.066663479613
 30
0.0
 11
-66.61208724563505
 21
140.5666634796102
 31
0.0
  0
LINE
  5
225
102
{ACAD_REACTORS
330
3D1
102
}
330
1F
100
AcDbEntity
  8
1
  6
Continuous
 62
     7
100
AcDbLine
 10
-66.76208724563514
 20
139.066663479613
 30
0.0
 11
-66.76208724563514
 21
141.8124353691552
 31
0.0
  0
LINE
  5
226
102
{ACAD_REACTORS
330
3D1
102
}
330
1F
100
AcDbEntity
  8
0
  6
Continuous
 62
     7
100
AcDbLine
 10
-37.51208724563503
 20
140.5666634796102
 30
0.0
 11
-36.41208724563501
 21
140.5666634796102
 31
0.0
  0
LINE
  5
227
330
1F
100
AcDbEntity
  8
0
  6
Continuous
 62
     7
100
AcDbLine
 10
-36.26208724563503
 20
139.066663479613
 30
0.0
 11
-35.21208724563508
 21
139.066663479613
 31
0.0
  0
LINE
  5
228
102
{ACAD_REACTORS
330
3D1
102
}
330
1F
100
AcDbEntity
  8
1
  6
Continuous
 62
     7
100
AcDbLine
 10
-65.51208724563503
 20
140.5666634796101
 30
0.0
 11
-66.61208724563505
 21
140.5666634796102
 31
0.0
  0
LINE
  5
229
102
{ACAD_REACTORS
330
3D1
102
}
330
1F
100
AcDbEntity
  8
1
  6
Continuous
 62
     7
100
AcDbLine
 10
-36.26208724563503
 20
139.066663479613
 30
0.0
 11
-36.41208724563501
 21
139.066663479613
 31
0.0
  0
LINE
  5
22A
102
{ACAD_REACTORS
330
3D1
102
}
330
1F
100
AcDbEntity
  8
1
  6
Continuous
 62
     7
100
AcDbLine
 10
-36.41208724563501
 20
139.066663479613
 30
0.0
 11
-36.41208724563501
 21
140.5666634796102
 31
0.0
  0
LINE
  5
22B
330
1F
100
AcDbEntity
  8
0
  6
Continuous
 62
     7
100
AcDbLine
 10
-65.01208724563503
 20
119.9196283100955
 30
0.0
 11
-65.01208724563503
 21
122.0283707452188
 31
0.0
  0
LINE
  5
22C
330
1F
100
AcDbEntity
  8
0
  6
Continuous
 62
     7
100
AcDbLine
 10
-62.21304913995823
 20
115.9029253591591
 30
0.0
 11
-65.11208724563505
 21
115.9029253591591
 31
0.0
  0
LINE
  5
22D
330
1F
100
AcDbEntity
  8
0
  6
Continuous
 62
     7
100
AcDbLine
 10
-59.78124418981156
 20
115.9036226549545
 30
0.0
 11
-43.24413805320387
 21
115.9036226549545
 31
0.0
  0
LINE
  5
22E
102
{ACAD_REACTORS
330
3D2
102
}
330
1F
100
AcDbEntity
  8
1
  6
Continuous
 62
     7
100
AcDbLine
 10
-65.01208724563503
 20
119.1795509932651
 30
0.0
 11
-65.01208724563503
 21
119.9196283100955
 31
0.0
  0
LINE
  5
22F
102
{ACAD_REACTORS
330
3D2
102
}
330
1F
100
AcDbEntity
  8
1
  6
Continuous
 62
     7
100
AcDbLine
 10
-63.01208724563503
 20
117.7689507629436
 30
0.0
 11
-59.78003643806619
 21
115.9029253591591
 31
0.0
  0
LINE
  5
230
102
{ACAD_REACTORS
330
3D2
102
}
330
1F
100
AcDbEntity
  8
1
  6
Continuous
 62
     7
100
AcDbLine
 10
-62.21304913995823
 20
115.9029253591591
 30
0.0
 11
-59.78003643806619
 21
115.9029253591591
 31
0.0
  0
LINE
  5
231
102
{ACAD_REACTORS
330
3D3
102
}
330
1F
100
AcDbEntity
  8
1
  6
Continuous
 62
     7
100
AcDbLine
 10
-43.24413805320387
 20
115.9029253591591
 30
0.0
 11
-40.81112535131183
 21
115.9029253591591
 31
0.0
  0
LINE
  5
232
102
{ACAD_REACTORS
330
3D3
102
}
330
1F
100
AcDbEntity
  8
1
  6
Continuous
 62
     7
100
AcDbLine
 10
-43.24413805320387
 20
115.9029253591591
 30
0.0
 11
-40.01208724563503
 21
117.7689507629436
 31
0.0
  0
LINE
  5
233
102
{ACAD_REACTORS
330
3D3
102
}
330
1F
100
AcDbEntity
  8
1
  6
Continuous
 62
     7
100
AcDbLine
 10
-38.01208724563503
 20
119.9196283100955
 30
0.0
 11
-38.01208724563503
 21
119.1795509932651
 31
0.0
  0
LINE
  5
234
102
{ACAD_REACTORS
330
3D3
102
}
330
1F
100
AcDbEntity
  8
1
  6
Continuous
 62
     7
100
AcDbLine
 10
-39.26208724563503
 20
116.7972629264566
 30
0.0
 11
-40.81112535131183
 21
115.9029253591591
 31
0.0
  0
LINE
  5
235
330
1F
100
AcDbEntity
  8
1
  6
Continuous
 62
     7
100
AcDbLine
 10
-40.81112535131183
 20
115.9029253591591
 30
0.0
 11
-37.91208724563501
 21
115.9029253591591
 31
0.0
  0
LINE
  5
236
330
1F
100
AcDbEntity
  8
1
  6
Continuous
 62
     7
100
AcDbLine
 10
-38.01208724563503
 20
119.9196283100955
 30
0.0
 11
-38.01208724563503
 21
122.0283707452188
 31
0.0
  0
LINE
  5
237
102
{ACAD_REACTORS
330
3D4
102
}
330
1F
100
AcDbEntity
  8
1
  6
Continuous
 62
     7
100
AcDbLine
 10
-110.3620872456351
 20
219.5728717612658
 30
0.0
 11
-152.3620872456351
 21
219.5728717612658
 31
0.0
  0
LINE
  5
238
102
{ACAD_REACTORS
330
3D4
102
}
330
1F
100
AcDbEntity
  8
1
  6
Continuous
 62
     7
100
AcDbLine
 10
-110.3620872456351
 20
223.2728717612659
 30
0.0
 11
-110.3620872456351
 21
219.5728717612658
 31
0.0
  0
LINE
  5
239
102
{ACAD_REACTORS
330
3D4
102
}
330
1F
100
AcDbEntity
  8
1
  6
Continuous
 62
     7
100
AcDbLine
 10
-152.3620872456351
 20
223.2728717612659
 30
0.0
 11
-110.3620872456351
 21
223.2728717612659
 31
0.0
  0
LINE
  5
23A
102
{ACAD_REACTORS
330
3D4
102
}
330
1F
100
AcDbEntity
  8
1
  6
Continuous
 62
     7
100
AcDbLine
 10
-152.3620872456351
 20
219.5728717612658
 30
0.0
 11
-152.3620872456351
 21
223.2728717612659
 31
0.0
  0
LINE
  5
23B
330
1F
100
AcDbEntity
  8
0
  6
Continuous
 62
     7
100
AcDbLine
 10
-142.0620872456351
 20
219.5728717612658
 30
0.0
 11
-142.0620872456351
 21
218.672871761266
 31
0.0
  0
LINE
  5
23C
330
1F
100
AcDbEntity
  8
1
  6
Continuous
 62
     7
100
AcDbLine
 10
-65.01208724563503
 20
231.2930463213541
 30
0.0
 11
-65.01208724563503
 21
244.5728717612664
 31
0.0
  0
LINE
  5
23D
330
1F
100
AcDbEntity
  8
1
  6
Continuous
 62
     7
100
AcDbLine
 10
-38.01208724563503
 20
244.5728717612664
 30
0.0
 11
-38.01208724563503
 21
231.2930463213541
 31
0.0
  0
LINE
  5
23E
330
1F
100
AcDbEntity
  8
1
  6
Continuous
 62
     7
100
AcDbLine
 10
-66.61208724563505
 20
251.4633913001389
 30
0.0
 11
-66.61208724563505
 21
261.7292584791146
 31
0.0
  0
LINE
  5
23F
330
1F
100
AcDbEntity
  8
1
  6
Continuous
 62
     7
100
AcDbLine
 10
-36.41208724563501
 20
261.7292584791146
 30
0.0
 11
-36.41208724563501
 21
251.4633913001389
 31
0.0
  0
LINE
  5
240
330
1F
100
AcDbEntity
  8
1
  6
DOT_CENTER
 62
     2
100
AcDbLine
 10
-133.912087245635
 20
101.6029253591592
 30
0.0
 11
-133.912087245635
 21
94.40292535915906
 31
0.0
  0
LINE
  5
241
330
1F
100
AcDbEntity
  8
1
  6
DOT_CENTER
 62
     2
100
AcDbLine
 10
-137.5120872456351
 20
98.00292535915919
 30
0.0
 11
-130.312087245635
 21
98.00292535915919
 31
0.0
  0
LINE
  5
242
330
1F
100
AcDbEntity
  8
1
  6
DOT_CENTER
 62
     2
100
AcDbLine
 10
-137.5120872456351
 20
128.0029253591591
 30
0.0
 11
-130.312087245635
 21
128.0029253591592
 31
0.0
  0
LINE
  5
243
330
1F
100
AcDbEntity
  8
1
  6
DOT_CENTER
 62
     2
100
AcDbLine
 10
-133.912087245635
 20
131.6029253591591
 30
0.0
 11
-133.912087245635
 21
124.4029253591592
 31
0.0
  0
LINE
  5
244
330
1F
100
AcDbEntity
  8
1
  6
Continuous
 62
     7
100
AcDbLine
 10
-122.912087245635
 20
124.0029253591592
 30
0.0
 11
-144.912087245635
 21
124.0029253591591
 31
0.0
  0
LINE
  5
245
330
1F
100
AcDbEntity
  8
1
  6
Continuous
 62
     7
100
AcDbLine
 10
-144.912087245635
 20
102.0029253591592
 30
0.0
 11
-144.912087245635
 21
124.0029253591591
 31
0.0
  0
LINE
  5
246
330
1F
100
AcDbEntity
  8
1
  6
Continuous
 62
     7
100
AcDbLine
 10
-122.912087245635
 20
102.0029253591592
 30
0.0
 11
-144.912087245635
 21
102.0029253591592
 31
0.0
  0
LINE
  5
247
330
1F
100
AcDbEntity
  8
1
  6
Continuous
 62
     7
100
AcDbLine
 10
-122.912087245635
 20
124.0029253591592
 30
0.0
 11
-122.912087245635
 21
102.0029253591592
 31
0.0
  0
LINE
  5
248
330
1F
100
AcDbEntity
  8
1
  6
DOT_CENTER
 62
     2
100
AcDbLine
 10
-51.51208724563503
 20
226.4728717612659
 30
0.0
 11
-51.51208724563503
 21
214.9728717612659
 31
0.0
  0
LINE
  5
249
330
1F
100
AcDbEntity
  8
1
  6
DOT_CENTER
 62
     2
100
AcDbLine
 10
-116.3620872456351
 20
226.4728717612659
 30
0.0
 11
-116.3620872456351
 21
214.9728717612659
 31
0.0
  0
LINE
  5
24A
330
1F
100
AcDbEntity
  8
1
  6
DOT_CENTER
 62
     2
100
AcDbLine
 10
-146.3620872456351
 20
226.4728717612659
 30
0.0
 11
-146.3620872456351
 21
214.9728717612659
 31
0.0
  0
LINE
  5
24B
330
1F
100
AcDbEntity
  8
1
  6
DOT_CENTER
 62
     2
100
AcDbLine
 10
-55.11208724563505
 20
146.9029253591591
 30
0.0
 11
-47.91208724563501
 21
146.9029253591591
 31
0.0
  0
LINE
  5
24C
330
1F
100
AcDbEntity
  8
1
  6
DOT_CENTER
 62
     2
100
AcDbLine
 10
-51.51208724563503
 20
150.5029253591591
 30
0.0
 11
-51.51208724563503
 21
143.3029253591592
 31
0.0
  0
LINE
  5
24D
330
1F
100
AcDbEntity
  8
1
  6
DOT_CENTER
 62
     2
100
AcDbLine
 10
-55.11208724563505
 20
116.9029253591591
 30
0.0
 11
-47.91208724563501
 21
116.9029253591591
 31
0.0
  0
LINE
  5
24E
330
1F
100
AcDbEntity
  8
1
  6
DOT_CENTER
 62
     2
100
AcDbLine
 10
-51.51208724563503
 20
120.5029253591592
 30
0.0
 11
-51.51208724563503
 21
113.3029253591591
 31
0.0
  0
LINE
  5
24F
330
1F
100
AcDbEntity
  8
0
  6
Continuous
 62
     2
100
AcDbLine
 10
-50.11220834242982
 20
238.309907635448
 30
0.0
 11
-50.11220834242982
 21
241.2166563787872
 31
0.0
  0
LINE
  5
250
330
1F
100
AcDbEntity
  8
0
  6
Continuous
 62
     2
100
AcDbLine
 10
-49.01235899441195
 20
238.5981840423704
 30
0.0
 11
-49.81228979624353
 21
238.1366855028524
 31
0.0
  0
LINE
  5
251
330
1F
100
AcDbEntity
  8
0
  6
Continuous
 62
     2
100
AcDbLine
 10
-49.71224294151443
 20
238.6561596985358
 30
0.0
 11
-49.21223068586875
 21
238.9446283075618
 31
0.0
  0
LINE
  5
252
330
1F
100
AcDbEntity
  8
0
  6
Continuous
 62
     2
100
AcDbLine
 10
-49.71224294151443
 20
239.5632993066598
 30
0.0
 11
-49.71224294151443
 21
238.6561596985358
 31
0.0
  0
LINE
  5
253
330
1F
100
AcDbEntity
  8
0
  6
Continuous
 62
     2
100
AcDbLine
 10
-49.11229484014035
 20
239.5632993066598
 30
0.0
 11
-49.71224294151443
 21
239.5632993066598
 31
0.0
  0
LINE
  5
254
330
1F
100
AcDbEntity
  8
0
  6
Continuous
 62
     2
100
AcDbLine
 10
-49.71224294151443
 20
239.9632647075754
 30
0.0
 11
-49.11229484014035
 21
239.9632647075754
 31
0.0
  0
LINE
  5
255
330
1F
100
AcDbEntity
  8
0
  6
Continuous
 62
     2
100
AcDbLine
 10
-49.71224294151443
 20
240.8704043156996
 30
0.0
 11
-49.71224294151443
 21
239.9632647075754
 31
0.0
  0
LINE
  5
256
330
1F
100
AcDbEntity
  8
0
  6
Continuous
 62
     2
100
AcDbLine
 10
-49.21223068586875
 20
240.5819357066735
 30
0.0
 11
-49.71224294151443
 21
240.8704043156996
 31
0.0
  0
LINE
  5
257
330
1F
100
AcDbEntity
  8
0
  6
Continuous
 62
     2
100
AcDbLine
 10
-49.81228979624353
 20
241.389878511383
 30
0.0
 11
-49.01235899441195
 21
240.9283799718647
 31
0.0
  0
LINE
  5
258
330
1F
100
AcDbEntity
  8
0
  6
Continuous
 62
     2
100
AcDbLine
 10
-54.11186235158726
 20
238.7714061749663
 30
0.0
 11
-54.11186235158704
 21
240.7551578392691
 31
0.0
  0
LINE
  5
259
330
1F
100
AcDbEntity
  8
0
  6
Continuous
 62
     2
100
AcDbLine
 10
-53.71189695067147
 20
238.8869089682947
 30
0.0
 11
-53.71189695067147
 21
238.7714061749663
 31
0.0
  0
LINE
  5
25A
330
1F
100
AcDbEntity
  8
0
  6
Continuous
 62
     2
100
AcDbLine
 10
-53.71189695067147
 20
240.7551578392691
 30
0.0
 11
-53.71189695067147
 21
238.8869089682947
 31
0.0
  0
LINE
  5
25B
330
1F
100
AcDbEntity
  8
0
  6
Continuous
 62
     2
100
AcDbLine
 10
-51.81200579182098
 20
237.3290630586956
 30
0.0
 11
-53.11183784029663
 21
238.0789661635853
 31
0.0
  0
LINE
  5
25C
330
1F
100
AcDbEntity
  8
0
  6
Continuous
 62
     2
100
AcDbLine
 10
-52.91196614883984
 20
238.4254104287767
 30
0.0
 11
-51.61213410036413
 21
237.675507323887
 31
0.0
  0
LINE
  5
25D
330
1F
100
AcDbEntity
  8
0
  6
Continuous
 62
     2
100
AcDbLine
 10
-52.91196614883967
 20
241.2166563787872
 30
0.0
 11
-52.91196614883984
 21
238.4254104287767
 31
0.0
  0
LINE
  5
25E
330
1F
100
AcDbEntity
  8
0
  6
Continuous
 62
     2
100
AcDbLine
 10
-53.31193154975563
 20
238.4254104287767
 30
0.0
 11
-53.31193154975563
 21
241.2166563787872
 31
0.0
  0
LINE
  5
25F
330
1F
100
AcDbEntity
  8
0
  6
Continuous
 62
     2
100
AcDbLine
 10
-50.80880829309064
 20
241.7813276866495
 30
0.0
 11
-51.51208724563486
 21
240.5632128089491
 31
0.0
  0
LINE
  5
260
330
1F
100
AcDbEntity
  8
0
  6
Continuous
 62
     2
100
AcDbLine
 10
-50.51217374334516
 20
237.8484090959299
 30
0.0
 11
-50.51217374334516
 21
241.7018446985981
 31
0.0
  0
LINE
  5
261
330
1F
100
AcDbEntity
  8
0
  6
Continuous
 62
     2
100
AcDbLine
 10
-50.91213914426095
 20
239.7632820071177
 30
0.0
 11
-50.91213914426095
 21
237.8484090959299
 31
0.0
  0
LINE
  5
262
330
1F
100
AcDbEntity
  8
0
  6
Continuous
 62
     2
100
AcDbLine
 10
-52.11203534700837
 20
238.7719188087625
 30
0.0
 11
-52.11203534700837
 21
239.7632820071177
 31
0.0
  0
LINE
  5
263
330
1F
100
AcDbEntity
  8
0
  6
Continuous
 62
     2
100
AcDbLine
 10
-52.51200074792405
 20
239.7632820071177
 30
0.0
 11
-52.51200074792405
 21
238.7719188087625
 31
0.0
  0
LINE
  5
264
330
1F
100
AcDbEntity
  8
0
  6
Continuous
 62
     2
100
AcDbLine
 10
-52.21536619817903
 20
241.7813276866495
 30
0.0
 11
-51.51208724563486
 21
240.5632128089491
 31
0.0
  0
LINE
  5
265
330
1F
100
AcDbEntity
  8
0
  6
Continuous
 62
     2
100
AcDbLine
 10
-52.51200074792405
 20
239.7632820071177
 30
0.0
 11
-52.51200074792405
 21
241.7018446985981
 31
0.0
  0
LINE
  5
266
330
1F
100
AcDbEntity
  8
0
  6
Continuous
 62
     2
100
AcDbLine
 10
-51.51208724563503
 20
236.76354150025
 30
0.0
 11
-56.56151160928903
 21
239.6766709408199
 31
0.0
  0
LINE
  5
267
330
1F
100
AcDbEntity
  8
0
  6
Continuous
 62
     2
100
AcDbLine
 10
-46.46266288198018
 20
239.6766709408199
 30
0.0
 11
-51.51208724563503
 21
236.76354150025
 31
0.0
  0
LINE
  5
268
330
1F
100
AcDbEntity
  8
0
  6
Continuous
 62
     2
100
AcDbLine
 10
-51.51208724563486
 20
242.7630225139854
 30
0.0
 11
-46.46266288198018
 21
239.8498930734155
 31
0.0
  0
LINE
  5
269
330
1F
100
AcDbEntity
  8
0
  6
Continuous
 62
     2
100
AcDbLine
 10
-56.56151160928903
 20
239.8498930734155
 30
0.0
 11
-51.51208724563486
 21
242.7630225139854
 31
0.0
  0
LINE
  5
26A
330
1F
100
AcDbEntity
  8
0
  6
Continuous
 62
     2
100
AcDbLine
 10
-52.11203534700837
 20
240.802422600601
 30
0.0
 11
-52.11203534700837
 21
239.7632820071177
 31
0.0
  0
LINE
  5
26B
330
1F
100
AcDbEntity
  8
0
  6
Continuous
 62
     2
100
AcDbLine
 10
-51.59868229509135
 20
239.913269032461
 30
0.0
 11
-52.11203534700837
 21
240.802422600601
 31
0.0
  0
LINE
  5
26C
330
1F
100
AcDbEntity
  8
0
  6
Continuous
 62
     2
100
AcDbLine
 10
-50.91213914426095
 20
240.802422600601
 30
0.0
 11
-51.42549219617797
 21
239.913269032461
 31
0.0
  0
LINE
  5
26D
330
1F
100
AcDbEntity
  8
0
  6
Continuous
 62
     2
100
AcDbLine
 10
-50.91213914426095
 20
239.7632820071177
 30
0.0
 11
-50.91213914426095
 21
240.802422600601
 31
0.0
  0
LINE
  5
26E
330
1F
100
AcDbEntity
  8
1
  6
Continuous
 62
     7
100
AcDbLine
 10
-50.19999999999979
 20
89.59999999999988
 30
0.0
 11
-25.79999999999975
 21
89.59999999999988
 31
0.0
  0
LINE
  5
26F
330
1F
100
AcDbEntity
  8
1
  6
Continuous
 62
     7
100
AcDbLine
 10
-50.19999999999979
 20
85.1999999999999
 30
0.0
 11
-25.79999999999975
 21
85.1999999999999
 31
0.0
  0
LINE
  5
270
330
1F
100
AcDbEntity
  8
1
  6
Continuous
 62
     7
100
AcDbLine
 10
-50.19999999999979
 20
80.79999999999998
 30
0.0
 11
-25.79999999999975
 21
80.79999999999998
 31
0.0
  0
LINE
  5
271
330
1F
100
AcDbEntity
  8
1
  6
Continuous
 62
     7
100
AcDbLine
 10
-50.19999999999979
 20
76.4
 30
0.0
 11
-25.79999999999975
 21
76.4
 31
0.0
  0
LINE
  5
272
330
1F
100
AcDbEntity
  8
1
  6
Continuous
 62
     7
100
AcDbLine
 10
-50.19999999999979
 20
72.0
 30
0.0
 11
-25.79999999999975
 21
72.0
 31
0.0
  0
LINE
  5
273
330
1F
100
AcDbEntity
  8
1
  6
Continuous
 62
     7
100
AcDbLine
 10
-50.19999999999979
 20
67.59999999999988
 30
0.0
 11
-25.79999999999975
 21
67.59999999999988
 31
0.0
  0
LINE
  5
274
330
1F
100
AcDbEntity
  8
1
  6
Continuous
 62
     7
100
AcDbLine
 10
-50.19999999999979
 20
63.1999999999999
 30
0.0
 11
-25.79999999999975
 21
63.1999999999999
 31
0.0
  0
LINE
  5
275
330
1F
100
AcDbEntity
  8
1
  6
Continuous
 62
     7
100
AcDbLine
 10
-50.19999999999979
 20
58.79999999999998
 30
0.0
 11
-25.79999999999975
 21
58.79999999999998
 31
0.0
  0
LINE
  5
276
330
1F
100
AcDbEntity
  8
1
  6
Continuous
 62
     7
100
AcDbLine
 10
-60.99999999999997
 20
50.0
 30
0.0
 11
-60.99999999999997
 21
94.0
 31
0.0
  0
LINE
  5
277
330
1F
100
AcDbEntity
  8
1
  6
Continuous
 62
     7
100
AcDbLine
 10
-15.0
 20
50.0
 30
0.0
 11
-60.99999999999997
 21
50.0
 31
0.0
  0
LINE
  5
278
330
1F
100
AcDbEntity
  8
1
  6
Continuous
 62
     7
100
AcDbLine
 10
-15.0
 20
94.0
 30
0.0
 11
-15.0
 21
50.0
 31
0.0
  0
LINE
  5
279
330
1F
100
AcDbEntity
  8
1
  6
Continuous
 62
     7
100
AcDbLine
 10
-60.99999999999997
 20
94.0
 30
0.0
 11
-15.0
 21
94.0
 31
0.0
  0
LINE
  5
27A
330
1F
100
AcDbEntity
  8
1
  6
Continuous
 62
     7
100
AcDbLine
 10
-50.19999999999979
 20
54.39999999999998
 30
0.0
 11
-25.79999999999975
 21
54.39999999999998
 31
0.0
  0
ARC
  5
27B
102
{ACAD_REACTORS
330
3D1
102
}
330
1F
100
AcDbEntity
  8
0
  6
Continuous
 62
     7
100
AcDbCircle
 10
-51.51208724563503
 20
146.9029253591591
 30
0.0
 40
5.000000000000016
100
AcDbArc
 50
60.00000000000011
 51
119.9999999999999
  0
ARC
  5
27C
330
1F
100
AcDbEntity
  8
0
  6
Continuous
 62
     7
100
AcDbCircle
 10
-51.51208724563503
 20
116.9029253591591
 30
0.0
 40
1.649999999999884
100
AcDbArc
 50
322.7252339571176
 51
217.2747660428824
  0
ARC
  5
27D
102
{ACAD_REACTORS
330
3D1
102
}
330
1F
100
AcDbEntity
  8
0
  6
Continuous
 62
     7
100
AcDbCircle
 10
-42.51208724563503
 20
141.7067729364525
 30
0.0
 40
5.0
100
AcDbArc
 50
0.0
 51
60.00000000000011
  0
ARC
  5
27E
330
1F
100
AcDbEntity
  8
0
  6
Continuous
 62
     7
100
AcDbCircle
 10
-42.71208724563508
 20
123.1029253591592
 30
0.0
 40
3.200000000000102
100
AcDbArc
 50
270.0
 51
0.0
  0
ARC
  5
27F
330
1F
100
AcDbEntity
  8
0
  6
Continuous
 62
     7
100
AcDbCircle
 10
-42.71208724563508
 20
140.7029253591592
 30
0.0
 40
3.200000000000053
100
AcDbArc
 50
0.0
 51
90.0
  0
ARC
  5
280
330
1F
100
AcDbEntity
  8
0
  6
Continuous
 62
     7
100
AcDbCircle
 10
-60.31208724563498
 20
123.1029253591592
 30
0.0
 40
3.200000000000053
100
AcDbArc
 50
180.0
 51
270.0
  0
ARC
  5
281
330
1F
100
AcDbEntity
  8
0
  6
Continuous
 62
     7
100
AcDbCircle
 10
-60.31208724563498
 20
140.7029253591592
 30
0.0
 40
3.199999999999903
100
AcDbArc
 50
90.0
 51
180.0
  0
ARC
  5
282
102
{ACAD_REACTORS
330
3D1
102
}
330
1F
100
AcDbEntity
  8
0
  6
Continuous
 62
     7
100
AcDbCircle
 10
-60.51208724563503
 20
141.7067729364525
 30
0.0
 40
5.000000000000016
100
AcDbArc
 50
119.9999999999999
 51
180.0
  0
ARC
  5
283
330
1F
100
AcDbEntity
  8
0
  6
Continuous
 62
     7
100
AcDbCircle
 10
-143.8570872456351
 20
224.5678717612659
 30
0.0
 40
0.4950000000001182
100
AcDbArc
 50
270.0
 51
0.0
  0
ARC
  5
284
330
1F
100
AcDbEntity
  8
0
  6
Continuous
 62
     7
100
AcDbCircle
 10
-118.8670872456351
 20
224.5678717612659
 30
0.0
 40
0.4949999999999903
100
AcDbArc
 50
180.0
 51
270.0
  0
ARC
  5
285
330
1F
100
AcDbEntity
  8
0
  6
Continuous
 62
     7
100
AcDbCircle
 10
-112.8620872456351
 20
222.5728717612658
 30
0.0
 40
1.499999999999984
100
AcDbArc
 50
27.81813928465866
 51
90.0
  0
ARC
  5
286
330
1F
100
AcDbEntity
  8
0
  6
Continuous
 62
     7
100
AcDbCircle
 10
-131.3620872456352
 20
238.0728717612658
 30
0.0
 40
2.999999999999815
100
AcDbArc
 50
224.2200444276851
 51
270.0
  0
ARC
  5
287
330
1F
100
AcDbEntity
  8
0
  6
Continuous
 62
     7
100
AcDbCircle
 10
-64.00708724563503
 20
224.5678717612659
 30
0.0
 40
0.4950000000001182
100
AcDbArc
 50
270.0
 51
0.0
  0
ARC
  5
288
330
1F
100
AcDbEntity
  8
0
  6
Continuous
 62
     7
100
AcDbCircle
 10
-39.01208724563503
 20
222.5728717612658
 30
0.0
 40
1.500000000000054
100
AcDbArc
 50
27.81813928465727
 51
90.0
  0
ARC
  5
289
330
1F
100
AcDbEntity
  8
0
  6
Continuous
 62
     7
100
AcDbCircle
 10
-39.01708724563503
 20
224.5678717612659
 30
0.0
 40
0.4949999999999974
100
AcDbArc
 50
180.0
 51
270.0
  0
ARC
  5
28A
330
1F
100
AcDbEntity
  8
0
  6
Continuous
 62
     7
100
AcDbCircle
 10
-59.61208724563505
 20
139.8029253591592
 30
0.0
 40
2.399999999999991
100
AcDbArc
 50
112.0243128370417
 51
180.0
  0
ARC
  5
28B
330
1F
100
AcDbEntity
  8
0
  6
Continuous
 62
     7
100
AcDbCircle
 10
-43.41208724563501
 20
139.8029253591592
 30
0.0
 40
2.399999999999874
100
AcDbArc
 50
80.40593177313957
 51
90.0
  0
ARC
  5
28C
330
1F
100
AcDbEntity
  8
0
  6
Continuous
 62
     7
100
AcDbCircle
 10
-43.41208724563501
 20
139.8029253591592
 30
0.0
 40
2.399999999999991
100
AcDbArc
 50
67.97568716295834
 51
80.40593177313957
  0
ARC
  5
28D
330
1F
100
AcDbEntity
  8
0
  6
Continuous
 62
     7
100
AcDbCircle
 10
-59.61208724563505
 20
123.6029253591592
 30
0.0
 40
2.399999999999977
100
AcDbArc
 50
180.0
 51
270.0
  0
ARC
  5
28E
330
1F
100
AcDbEntity
  8
0
  6
Continuous
 62
     7
100
AcDbCircle
 10
-43.41208724563501
 20
139.8029253591592
 30
0.0
 40
2.399999999999977
100
AcDbArc
 50
0.0
 51
67.97568716295834
  0
ARC
  5
28F
330
1F
100
AcDbEntity
  8
0
  6
Continuous
 62
     7
100
AcDbCircle
 10
-43.41208724563501
 20
123.6029253591592
 30
0.0
 40
2.400000000000006
100
AcDbArc
 50
270.0
 51
0.0
  0
ARC
  5
290
330
1F
100
AcDbEntity
  8
0
  6
Continuous
 62
     7
100
AcDbCircle
 10
-59.61208724563505
 20
139.8029253591592
 30
0.0
 40
2.400000000000006
100
AcDbArc
 50
90.0
 51
99.59406822686043
  0
ARC
  5
291
330
1F
100
AcDbEntity
  8
0
  6
Continuous
 62
     7
100
AcDbCircle
 10
-59.61208724563505
 20
139.8029253591592
 30
0.0
 40
2.399999999999874
100
AcDbArc
 50
99.59406822686043
 51
112.0243128370417
  0
ARC
  5
292
330
1F
100
AcDbEntity
  8
0
  6
Continuous
 62
     7
100
AcDbCircle
 10
-57.16208724563501
 20
207.7728717612658
 30
0.0
 40
1.400244132795518
100
AcDbArc
 50
288.7459500212071
 51
71.25404997879403
  0
ARC
  5
293
330
1F
100
AcDbEntity
  8
0
  6
Continuous
 62
     7
100
AcDbCircle
 10
-45.86208724563505
 20
207.7728717612658
 30
0.0
 40
1.400244132795598
100
AcDbArc
 50
108.745950021206
 51
251.2540499787929
  0
ARC
  5
294
330
1F
100
AcDbEntity
  8
0
  6
Continuous
 62
     7
100
AcDbCircle
 10
-45.86208724563505
 20
207.7728717612658
 30
0.0
 40
1.400244132795556
100
AcDbArc
 50
288.7459500212117
 51
71.25404997878935
  0
ARC
  5
295
330
1F
100
AcDbEntity
  8
0
  6
Continuous
 62
     7
100
AcDbCircle
 10
-57.16208724563501
 20
207.7728717612658
 30
0.0
 40
1.400244132795637
100
AcDbArc
 50
108.7459500212106
 51
251.2540499787882
  0
ARC
  5
296
330
1F
100
AcDbEntity
  8
0
  6
Continuous
 62
     7
100
AcDbCircle
 10
-65.11208724563505
 20
117.4029253591594
 30
0.0
 40
2.699999999999932
100
AcDbArc
 50
180.0
 51
202.7943119693359
  0
ARC
  5
297
330
1F
100
AcDbEntity
  8
0
  6
Continuous
 62
     7
100
AcDbCircle
 10
-65.11208724563505
 20
117.4029253591594
 30
0.0
 40
2.699999999999983
100
AcDbArc
 50
202.7943119693359
 51
270.0
  0
ARC
  5
298
330
1F
100
AcDbEntity
  8
0
  6
Continuous
 62
     7
100
AcDbCircle
 10
-37.91208724563501
 20
117.4029253591594
 30
0.0
 40
2.699999999999878
100
AcDbArc
 50
337.2056880306632
 51
0.0
  0
ARC
  5
299
330
1F
100
AcDbEntity
  8
0
  6
Continuous
 62
     7
100
AcDbCircle
 10
-37.91208724563501
 20
117.4029253591594
 30
0.0
 40
2.700000000000003
100
AcDbArc
 50
270.0
 51
337.2056880306632
  0
ARC
  5
29A
330
1F
100
AcDbEntity
  8
0
  6
Continuous
 62
     7
100
AcDbCircle
 10
-128.1983491251841
 20
256.0728717612658
 30
0.0
 40
5.499999999999903
100
AcDbArc
 50
228.0490178461715
 51
105.6256661467553
  0
ARC
  5
29B
330
1F
100
AcDbEntity
  8
0
  6
Continuous
 62
     7
100
AcDbCircle
 10
-128.1983491251841
 20
256.0728717612658
 30
0.0
 40
5.499999999999956
100
AcDbArc
 50
151.0664766960813
 51
187.5107873568903
  0
ARC
  5
29C
330
1F
100
AcDbEntity
  8
0
  6
Continuous
 62
     7
100
AcDbCircle
 10
-128.1983491251841
 20
256.0728717612658
 30
0.0
 40
5.499999999999903
100
AcDbArc
 50
228.0490178461715
 51
105.6256661467553
  0
ARC
  5
29D
330
1F
100
AcDbEntity
  8
0
  6
Continuous
 62
     7
100
AcDbCircle
 10
-128.1983491251841
 20
256.0728717612658
 30
0.0
 40
5.499999999999956
100
AcDbArc
 50
151.0664766960813
 51
187.5107873568903
  0
ARC
  5
29E
330
1F
100
AcDbEntity
  8
0
  6
Continuous
 62
     7
100
AcDbCircle
 10
-129.8826122687713
 20
246.4633913001412
 30
0.0
 40
15.81138830084155
100
AcDbArc
 50
206.0687927681044
 51
243.8271990795978
  0
ARC
  5
29F
330
1F
100
AcDbEntity
  8
0
  6
Continuous
 62
     7
100
AcDbCircle
 10
-129.8826122687991
 20
246.4633913001875
 30
0.0
 40
13.31138830084144
100
AcDbArc
 50
211.4653403833135
 51
211.7267967025328
  0
ARC
  5
2A0
330
1F
100
AcDbEntity
  8
0
  6
Continuous
 62
     7
100
AcDbCircle
 10
-129.8826122687698
 20
246.4633913001397
 30
0.0
 40
13.31138830084148
100
AcDbArc
 50
210.4614124067242
 51
211.4653403830721
  0
ARC
  5
2A1
330
1F
100
AcDbEntity
  8
0
  6
Continuous
 62
     7
100
AcDbCircle
 10
-129.8826122687698
 20
246.4633913001397
 30
0.0
 40
13.31138830084151
100
AcDbArc
 50
203.6898059208649
 51
210.4614124067242
  0
ARC
  5
2A2
330
1F
100
AcDbEntity
  8
0
  6
Continuous
 62
     7
100
AcDbCircle
 10
-129.8826122687698
 20
246.4633913001397
 30
0.0
 40
15.81138830084237
100
AcDbArc
 50
205.2647057211342
 51
206.0687927680971
  0
ARC
  5
2A3
330
1F
100
AcDbEntity
  8
0
  6
Continuous
 62
     7
100
AcDbCircle
 10
-146.9081322257372
 20
238.4633913001397
 30
0.0
 40
3.00000000000063
100
AcDbArc
 50
24.65974016074392
 51
39.99999999999999
  0
ARC
  5
2A4
330
1F
100
AcDbEntity
  8
0
  6
Continuous
 62
     7
100
AcDbCircle
 10
-139.5036861793211
 20
240.5150770767548
 30
0.0
 40
1.999999999999731
100
AcDbArc
 50
211.7267967022769
 51
343.3025271738381
  0
ARC
  5
2A5
330
1F
100
AcDbEntity
  8
0
  6
Continuous
 62
     7
100
AcDbCircle
 10
-131.3620872456352
 20
238.0728717612658
 30
0.0
 40
6.500000000000856
100
AcDbArc
 50
294.6967487400008
 51
163.3025271738355
  0
ARC
  5
2A6
330
1F
100
AcDbEntity
  8
0
  6
Continuous
 62
     7
100
AcDbCircle
 10
-132.3375548044302
 20
251.7292584791149
 30
0.0
 40
10.00000000000071
100
AcDbArc
 50
46.38036977979247
 51
114.9948907455997
  0
ARC
  5
2A7
330
1F
100
AcDbEntity
  8
0
  6
Continuous
 62
     7
100
AcDbCircle
 10
-131.3620872456352
 20
238.0728717612658
 30
0.0
 40
2.24999999999999
100
AcDbArc
 50
271.2294714259618
 51
125.0000000000065
  0
ARC
  5
2A8
330
1F
100
AcDbEntity
  8
0
  6
Continuous
 62
     7
100
AcDbCircle
 10
-133.9405571936842
 20
257.5558200954768
 30
0.0
 40
1.500000000000185
100
AcDbArc
 50
325.0000000000317
 51
110.0940434056344
  0
ARC
  5
2A9
330
1F
100
AcDbEntity
  8
0
  6
Continuous
 62
     7
100
AcDbCircle
 10
-128.1983491251818
 20
256.0728717612658
 30
0.0
 40
4.0
100
AcDbArc
 50
269.999999999967
 51
46.38036977979085
  0
ARC
  5
2AA
330
1F
100
AcDbEntity
  8
0
  6
Continuous
 62
     7
100
AcDbCircle
 10
-129.8848114075989
 20
246.462366269013
 30
0.0
 40
15.80999999999999
100
AcDbArc
 50
114.9860978056565
 51
149.8899695744448
  0
ARC
  5
2AB
330
1F
100
AcDbEntity
  8
0
  6
Continuous
 62
     7
100
AcDbCircle
 10
-129.8826122687698
 20
246.4633913001397
 30
0.0
 40
13.31138830084156
100
AcDbArc
 50
110.0940434056604
 51
203.6898059208649
  0
ARC
  5
2AC
330
1F
100
AcDbEntity
  8
0
  6
Continuous
 62
     7
100
AcDbCircle
 10
-132.640296766394
 20
240.8523140139667
 30
0.0
 40
9.559267692611904
100
AcDbArc
 50
243.8271990795868
 51
294.6967487399927
  0
ARC
  5
2AD
330
1F
100
AcDbEntity
  8
0
  6
Continuous
 62
     7
100
AcDbCircle
 10
-146.908132225735
 20
254.4633913001401
 30
0.0
 40
3.000000000000398
100
AcDbArc
 50
269.9999999999577
 51
290.4067007393889
  0
ARC
  5
2AE
330
1F
100
AcDbEntity
  8
0
  6
Continuous
 62
     7
100
AcDbCircle
 10
-150.5613899498392
 20
251.5301910521467
 30
0.0
 40
3.19999999999934
100
AcDbArc
 50
358.8038681606889
 51
50.01629610893598
  0
ARC
  5
2AF
330
1F
100
AcDbEntity
  8
0
  6
Continuous
 62
     7
100
AcDbCircle
 10
-150.562087245635
 20
251.5307759838297
 30
0.0
 40
2.0
100
AcDbArc
 50
0.0
 51
49.99999999998794
  0
ARC
  5
2B0
330
1F
100
AcDbEntity
  8
0
  6
Continuous
 62
     7
100
AcDbCircle
 10
-134.3620872456351
 20
249.4104945918257
 30
0.0
 40
1.0
100
AcDbArc
 50
179.9999999999316
 51
270.0
  0
ARC
  5
2B1
330
1F
100
AcDbEntity
  8
0
  6
Continuous
 62
     7
100
AcDbCircle
 10
-133.3620872456351
 20
252.2798970140687
 30
0.0
 40
1.999999999999962
100
AcDbArc
 50
145.0000000000022
 51
180.0
  0
ARC
  5
2B2
330
1F
100
AcDbEntity
  8
0
  6
Continuous
 62
     7
100
AcDbCircle
 10
-129.8826122687698
 20
246.4633913001397
 30
0.0
 40
15.81138830084226
100
AcDbArc
 50
149.8971805335121
 51
154.8319730306772
  0
ARC
  5
2B3
330
1F
100
AcDbEntity
  8
0
  6
Continuous
 62
     7
100
AcDbCircle
 10
-131.3620872456351
 20
250.5728717612658
 30
0.0
 40
1.5
100
AcDbArc
 50
90.0
 51
180.0
  0
ARC
  5
2B4
330
1F
100
AcDbEntity
  8
0
  6
Continuous
 62
     7
100
AcDbCircle
 10
-146.5620872456349
 20
245.8296100862067
 30
0.0
 40
1.999999999999915
100
AcDbArc
 50
180.0
 51
219.9999999999971
  0
ARC
  5
2B5
330
1F
100
AcDbEntity
  8
0
  6
Continuous
 62
     7
100
AcDbCircle
 10
-146.9081322257372
 20
254.4633913001397
 30
0.0
 40
3.000000000000834
100
AcDbArc
 50
290.4067007394312
 51
334.8319730306792
  0
ARC
  5
2B6
330
1F
100
AcDbEntity
  8
0
  6
Continuous
 62
     7
100
AcDbCircle
 10
-36.61208724563505
 20
239.5150770767548
 30
0.0
 40
0.2000000000001023
100
AcDbArc
 50
90.0
 51
180.0
  0
ARC
  5
2B7
330
1F
100
AcDbEntity
  8
0
  6
Continuous
 62
     7
100
AcDbCircle
 10
-66.412087245635
 20
239.5150770767548
 30
0.0
 40
0.1999999999999318
100
AcDbArc
 50
0.0
 51
90.0
  0
ARC
  5
2B8
330
1F
100
AcDbEntity
  8
0
  6
Continuous
 62
     7
100
AcDbCircle
 10
-36.61208724563505
 20
239.5150770767548
 30
0.0
 40
1.40000000000002
100
AcDbArc
 50
141.2298361578769
 51
171.7867892982576
  0
ARC
  5
2B9
330
1F
100
AcDbEntity
  8
0
  6
Continuous
 62
     7
100
AcDbCircle
 10
-36.61208724563505
 20
241.1150770767549
 30
0.0
 40
1.399999999999977
100
AcDbArc
 50
270.0
 51
328.8915739263758
  0
ARC
  5
2BA
330
1F
100
AcDbEntity
  8
0
  6
Continuous
 62
     7
100
AcDbCircle
 10
-36.61208724563505
 20
241.1150770767549
 30
0.0
 40
0.1999999999999886
100
AcDbArc
 50
270.0
 51
0.0
  0
ARC
  5
2BB
330
1F
100
AcDbEntity
  8
0
  6
Continuous
 62
     7
100
AcDbCircle
 10
-36.61208724563505
 20
239.5150770767548
 30
0.0
 40
1.400000000000091
100
AcDbArc
 50
90.0
 51
141.2298361578769
  0
ARC
  5
2BC
330
1F
100
AcDbEntity
  8
0
  6
Continuous
 62
     7
100
AcDbCircle
 10
-36.61208724563505
 20
241.1150770767549
 30
0.0
 40
1.400000000000019
100
AcDbArc
 50
328.8915739263758
 51
0.0
  0
ARC
  5
2BD
330
1F
100
AcDbEntity
  8
0
  6
Continuous
 62
     7
100
AcDbCircle
 10
-66.412087245635
 20
241.1150770767549
 30
0.0
 40
1.400000000000019
100
AcDbArc
 50
211.1084260736242
 51
270.0
  0
ARC
  5
2BE
330
1F
100
AcDbEntity
  8
0
  6
Continuous
 62
     7
100
AcDbCircle
 10
-66.412087245635
 20
241.1150770767549
 30
0.0
 40
0.2000000000000455
100
AcDbArc
 50
180.0
 51
270.0
  0
ARC
  5
2BF
330
1F
100
AcDbEntity
  8
0
  6
Continuous
 62
     7
100
AcDbCircle
 10
-66.412087245635
 20
241.1150770767549
 30
0.0
 40
1.399999999999977
100
AcDbArc
 50
180.0
 51
211.1084260736242
  0
ARC
  5
2C0
330
1F
100
AcDbEntity
  8
0
  6
Continuous
 62
     7
100
AcDbCircle
 10
-66.412087245635
 20
239.5150770767548
 30
0.0
 40
1.40000000000002
100
AcDbArc
 50
38.77016384212308
 51
90.0
  0
ARC
  5
2C1
330
1F
100
AcDbEntity
  8
0
  6
Continuous
 62
     7
100
AcDbCircle
 10
-66.412087245635
 20
239.5150770767548
 30
0.0
 40
1.400000000000007
100
AcDbArc
 50
8.21321070174238
 51
38.77016384212308
  0
ARC
  5
2C2
330
1F
100
AcDbEntity
  8
0
  6
Continuous
 62
     7
100
AcDbCircle
 10
-131.3620872456352
 20
238.0728717612658
 30
0.0
 40
2.150000000000007
100
AcDbArc
 50
127.0149692201048
 51
180.0
  0
ARC
  5
2C3
330
1F
100
AcDbEntity
  8
1
  6
Continuous
 62
     2
100
AcDbCircle
 10
-50.31208724563498
 20
124.4069445418782
 30
0.0
 40
0.1000000000000267
100
AcDbArc
 50
299.9816393688333
 51
119.9816393688689
  0
ARC
  5
2C4
330
1F
100
AcDbEntity
  8
1
  6
Continuous
 62
     2
100
AcDbCircle
 10
-50.31208724563498
 20
124.9029253591591
 30
0.0
 40
0.0999999999998948
100
AcDbArc
 50
270.0
 51
90.0
  0
ARC
  5
2C5
330
1F
100
AcDbEntity
  8
1
  6
Continuous
 62
     2
100
AcDbCircle
 10
-50.31208724563498
 20
125.3989061764402
 30
0.0
 40
0.1000000000000461
100
AcDbArc
 50
240.0183606311637
 51
60.01836063119516
  0
ARC
  5
2C6
330
1F
100
AcDbEntity
  8
1
  6
Continuous
 62
     2
100
AcDbCircle
 10
-52.71208724563508
 20
124.4069445418782
 30
0.0
 40
0.0999999999998948
100
AcDbArc
 50
180.0
 51
0.0
  0
ARC
  5
2C7
330
1F
100
AcDbEntity
  8
1
  6
Continuous
 62
     2
100
AcDbCircle
 10
-52.71208724563508
 20
125.3989061764402
 30
0.0
 40
0.1000000000001435
100
AcDbArc
 50
0.0
 51
180.0
  0
ARC
  5
2C8
330
1F
100
AcDbEntity
  8
1
  6
Continuous
 62
     2
100
AcDbCircle
 10
-51.61208724563494
 20
123.7723291572628
 30
0.0
 40
0.1000000000001732
100
AcDbArc
 50
240.0183606311352
 51
60.01836063116667
  0
ARC
  5
2C9
330
1F
100
AcDbEntity
  8
1
  6
Continuous
 62
     2
100
AcDbCircle
 10
-52.31208724563498
 20
125.6296754072094
 30
0.0
 40
0.0999999999998948
100
AcDbArc
 50
0.0
 51
180.0
  0
ARC
  5
2CA
330
1F
100
AcDbEntity
  8
1
  6
Continuous
 62
     2
100
AcDbCircle
 10
-51.09157710937814
 20
125.8722905527694
 30
0.0
 40
0.0794898637431132
100
AcDbArc
 50
0.0
 51
149.9999999997079
  0
ARC
  5
2CB
330
1F
100
AcDbEntity
  8
1
  6
Continuous
 62
     2
100
AcDbCircle
 10
-51.11208724563494
 20
123.9454060803397
 30
0.0
 40
0.1000000000001435
100
AcDbArc
 50
180.0
 51
0.0
  0
ARC
  5
2CC
330
1F
100
AcDbEntity
  8
1
  6
Continuous
 62
     2
100
AcDbCircle
 10
-51.91208724563501
 20
124.4072008809491
 30
0.0
 40
0.1000000000000227
100
AcDbArc
 50
180.0
 51
0.0
  0
ARC
  5
2CD
330
1F
100
AcDbEntity
  8
1
  6
Continuous
 62
     2
100
AcDbCircle
 10
-51.93259738189249
 20
125.8722905527694
 30
0.0
 40
0.079489863742789
100
AcDbArc
 50
30.00000000008465
 51
180.0
  0
ARC
  5
2CE
330
1F
100
AcDbEntity
  8
0
  6
Continuous
 62
     7
100
AcDbCircle
 10
-64.01208724563503
 20
222.5728717612658
 30
0.0
 40
1.5
100
AcDbArc
 50
90.0
 51
152.1818607153429
  0
ARC
  5
2CF
102
{ACAD_REACTORS
330
3D2
102
}
330
1F
100
AcDbEntity
  8
1
  6
Continuous
 62
     7
100
AcDbCircle
 10
-66.2503718864416
 20
119.5511470631632
 30
0.0
 40
1.29283892686642
100
AcDbArc
 50
300.4853316883126
 51
343.2960576372244
  0
ARC
  5
2D0
102
{ACAD_REACTORS
330
3D2
102
}
330
1F
100
AcDbEntity
  8
0
  6
Continuous
 62
     7
100
AcDbCircle
 10
-60.51208724563503
 20
122.0990777818658
 30
0.0
 40
4.999999999999983
100
AcDbArc
 50
205.8419327631667
 51
240.0
  0
ARC
  5
2D1
102
{ACAD_REACTORS
330
3D3
102
}
330
1F
100
AcDbEntity
  8
0
  6
Continuous
 62
     7
100
AcDbCircle
 10
-42.51208724563503
 20
122.0990777818658
 30
0.0
 40
5.000000000000004
100
AcDbArc
 50
300.0
 51
334.1580672368333
  0
ARC
  5
2D2
102
{ACAD_REACTORS
330
3D3
102
}
330
1F
100
AcDbEntity
  8
1
  6
Continuous
 62
     7
100
AcDbCircle
 10
-36.77380260482846
 20
119.5511470631632
 30
0.0
 40
1.29283892686644
100
AcDbArc
 50
196.7039423627756
 51
239.5146683116872
  0
ARC
  5
2D3
330
1F
100
AcDbEntity
  8
0
  6
Continuous
 62
     7
100
AcDbCircle
 10
-149.8620872456351
 20
222.5728717612658
 30
0.0
 40
1.5
100
AcDbArc
 50
90.0
 51
152.1818607153413
  0
ARC
  5
2D4
330
1F
100
AcDbEntity
  8
1
  6
DASHED
 62
     2
100
AcDbCircle
 10
-131.3620872456352
 20
238.0728717612658
 30
0.0
 40
28.99999999999997
100
AcDbArc
 50
127.1531689789952
 51
180.0
  0
ARC
  5
2D5
330
1F
100
AcDbEntity
  8
0
  6
Continuous
 62
     2
100
AcDbCircle
 10
-49.11229484014035
 20
238.7714061749663
 30
0.0
 40
0.1999827004581181
100
AcDbArc
 50
299.9816393688498
 51
119.981639368905
  0
ARC
  5
2D6
330
1F
100
AcDbEntity
  8
0
  6
Continuous
 62
     2
100
AcDbCircle
 10
-49.11229484014035
 20
239.7632820071177
 30
0.0
 40
0.1999827004579231
100
AcDbArc
 50
270.0
 51
90.0
  0
ARC
  5
2D7
330
1F
100
AcDbEntity
  8
0
  6
Continuous
 62
     2
100
AcDbCircle
 10
-49.11229484014035
 20
240.7551578392691
 30
0.0
 40
0.1999827004578437
100
AcDbArc
 50
240.0183606311072
 51
60.01836063110958
  0
ARC
  5
2D8
330
1F
100
AcDbEntity
  8
0
  6
Continuous
 62
     2
100
AcDbCircle
 10
-53.91187965112897
 20
238.7714061749663
 30
0.0
 40
0.1999827004582926
100
AcDbArc
 50
180.0
 51
0.0
  0
ARC
  5
2D9
330
1F
100
AcDbEntity
  8
0
  6
Continuous
 62
     2
100
AcDbCircle
 10
-53.91187965112897
 20
240.7551578392691
 30
0.0
 40
0.1999827004574968
100
AcDbArc
 50
0.0
 51
180.0
  0
ARC
  5
2DA
330
1F
100
AcDbEntity
  8
0
  6
Continuous
 62
     2
100
AcDbCircle
 10
-51.71206994609253
 20
237.5022851912914
 30
0.0
 40
0.1999827004580691
100
AcDbArc
 50
240.0183606311257
 51
60.01836063110726
  0
ARC
  5
2DB
330
1F
100
AcDbEntity
  8
0
  6
Continuous
 62
     2
100
AcDbCircle
 10
-53.11194884929734
 20
241.2166563787872
 30
0.0
 40
0.1999827004576744
100
AcDbArc
 50
0.0
 51
180.0
  0
ARC
  5
2DC
330
1F
100
AcDbEntity
  8
0
  6
Continuous
 62
     2
100
AcDbCircle
 10
-50.67113971944815
 20
241.7018446985981
 30
0.0
 40
0.1589659761029907
100
AcDbArc
 50
0.0
 51
150.0000000000198
  0
ARC
  5
2DD
330
1F
100
AcDbEntity
  8
0
  6
Continuous
 62
     2
100
AcDbCircle
 10
-50.71215644380357
 20
237.8484090959299
 30
0.0
 40
0.199982700457376
100
AcDbArc
 50
180.0
 51
0.0
  0
ARC
  5
2DE
330
1F
100
AcDbEntity
  8
0
  6
Continuous
 62
     2
100
AcDbCircle
 10
-52.31201804746667
 20
238.7719188087625
 30
0.0
 40
0.199982700457376
100
AcDbArc
 50
180.0
 51
0.0
  0
ARC
  5
2DF
330
1F
100
AcDbEntity
  8
0
  6
Continuous
 62
     2
100
AcDbCircle
 10
-52.35303477182117
 20
241.7018446985981
 30
0.0
 40
0.1589659761025572
100
AcDbArc
 50
30.00000000004289
 51
180.0
  0
CIRCLE
  5
2E0
330
1F
100
AcDbEntity
  8
0
  6
Continuous
 62
     7
100
AcDbCircle
 10
-51.51208724563503
 20
146.9029253591591
 30
0.0
 40
1.649999999999977
  0
CIRCLE
  5
2E1
330
1F
100
AcDbEntity
  8
0
  6
Continuous
 62
     7
100
AcDbCircle
 10
-51.51208724563503
 20
232.5728717612658
 30
0.0
 40
3.5
  0
CIRCLE
  5
2E2
330
1F
100
AcDbEntity
  8
0
  6
Continuous
 62
     7
100
AcDbCircle
 10
-57.16208724563501
 20
207.7728717612658
 30
0.0
 40
1.75
  0
CIRCLE
  5
2E3
330
1F
100
AcDbEntity
  8
0
  6
Continuous
 62
     7
100
AcDbCircle
 10
-45.86208724563505
 20
207.7728717612658
 30
0.0
 40
1.75
  0
CIRCLE
  5
2E4
330
1F
100
AcDbEntity
  8
0
  6
Continuous
 62
     7
100
AcDbCircle
 10
-128.1983491251841
 20
256.0728717612658
 30
0.0
 40
1.75
  0
CIRCLE
  5
2E5
330
1F
100
AcDbEntity
  8
0
  6
Continuous
 62
     7
100
AcDbCircle
 10
-128.1983491251841
 20
256.0728717612658
 30
0.0
 40
1.75
  0
CIRCLE
  5
2E6
330
1F
100
AcDbEntity
  8
1
  6
Continuous
 62
     7
100
AcDbCircle
 10
-133.912087245635
 20
98.00292535915919
 30
0.0
 40
1.599999999999994
  0
CIRCLE
  5
2E7
330
1F
100
AcDbEntity
  8
1
  6
Continuous
 62
     7
100
AcDbCircle
 10
-133.912087245635
 20
128.0029253591592
 30
0.0
 40
1.599999999999994
  0
SPLINE
  5
2E8
330
1F
100
AcDbEntity
  8
0
  6
Continuous
 62
     7
100
AcDbSpline
210
0.0
220
0.0
230
1.0
 70
     8
 71
     3
 72
    13
 73
     9
 74
     7
 42
0.000000001
 43
0.0000000001
 44
0.00000001
 40
0.0
 40
0.0
 40
0.0
 40
0.0
 40
0.5220942639362435
 40
1.044179616044528
 40
1.566259823493571
 40
2.088340030942568
 40
2.610425383050806
 40
3.132519646987038
 40
3.132519646987038
 40
3.132519646987038
 40
3.132519646987038
 10
-60.31216339950674
 20
142.7029253591592
 30
0.0
 10
-60.48669799035222
 20
142.6896602915203
 30
0.0
 10
-60.83576419093164
 20
142.6631303683786
 30
0.0
 10
-61.32350618374632
 20
142.4532415959367
 30
0.0
 10
-61.74302045188148
 20
142.1338585654055
 30
0.0
 10
-62.06240348241282
 20
141.7143442972705
 30
0.0
 10
-62.27229225485442
 20
141.2266023044557
 30
0.0
 10
-62.29882217799616
 20
140.8775361038763
 30
0.0
 10
-62.31208724563498
 20
140.7030015130308
 30
0.0
 11
-60.31216339950674
 21
142.7029253591592
 31
0.0
 11
-60.82979135149931
 21
142.6347804718375
 31
0.0
 11
-61.31213710255145
 21
142.4349913482044
 31
0.0
 11
-61.72633197416889
 21
142.1171700876929
 31
0.0
 11
-62.04415323468044
 21
141.7029752160755
 31
0.0
 11
-62.2439423583134
 21
141.2206294650234
 31
0.0
 11
-62.31208724563498
 21
140.7030015130308
 31
0.0
  0
SPLINE
  5
2E9
330
1F
100
AcDbEntity
  8
0
  6
Continuous
 62
     7
100
AcDbSpline
210
0.0
220
0.0
230
1.0
 70
     8
 71
     3
 72
    13
 73
     9
 74
     7
 42
0.000000001
 43
0.0000000001
 44
0.00000001
 40
0.0
 40
0.0
 40
0.0
 40
0.0
 40
0.5220942639362379
 40
1.044179616044501
 40
1.566259823493467
 40
2.088340030942505
 40
2.61042538305084
 40
3.132519646987086
 40
3.132519646987086
 40
3.132519646987086
 40
3.132519646987086
 10
-40.71208724563508
 20
140.7030015130308
 30
0.0
 10
-40.72535231327392
 20
140.8775361038763
 30
0.0
 10
-40.75188223641567
 20
141.2266023044557
 30
0.0
 10
-40.9617710088574
 20
141.7143442972704
 30
0.0
 10
-41.28115403938864
 20
142.1338585654055
 30
0.0
 10
-41.7006683075238
 20
142.4532415959368
 30
0.0
 10
-42.1884103003385
 20
142.6631303683786
 30
0.0
 10
-42.53747650091793
 20
142.6896602915203
 30
0.0
 10
-42.71201109176343
 20
142.7029253591592
 30
0.0
 11
-40.71208724563508
 21
140.7030015130308
 31
0.0
 11
-40.78023213295671
 21
141.2206294650234
 31
0.0
 11
-40.98002125658974
 21
141.7029752160755
 31
0.0
 11
-41.29784251710124
 21
142.1171700876929
 31
0.0
 11
-41.71203738871867
 21
142.4349913482044
 31
0.0
 11
-42.19438313977085
 21
142.6347804718376
 31
0.0
 11
-42.71201109176343
 21
142.7029253591592
 31
0.0
  0
SPLINE
  5
2EA
330
1F
100
AcDbEntity
  8
0
  6
Continuous
 62
     7
100
AcDbSpline
210
0.0
220
0.0
230
1.0
 70
     8
 71
     3
 72
    13
 73
     9
 74
     7
 42
0.000000001
 43
0.0000000001
 44
0.00000001
 40
0.0
 40
0.0
 40
0.0
 40
0.0
 40
0.5220942639362376
 40
1.044179616044518
 40
1.566259823493581
 40
2.088340030942593
 40
2.610425383050843
 40
3.132519646987024
 40
3.132519646987024
 40
3.132519646987024
 40
3.132519646987024
 10
-42.71201109176343
 20
121.1029253591592
 30
0.0
 10
-42.53747650091795
 20
121.1161904267981
 30
0.0
 10
-42.18841030033854
 20
121.1427203499397
 30
0.0
 10
-41.70066830752373
 20
121.3526091223814
 30
0.0
 10
-41.28115403938866
 20
121.6719921529128
 30
0.0
 10
-40.9617710088574
 20
122.0915064210479
 30
0.0
 10
-40.75188223641568
 20
122.5792484138626
 30
0.0
 10
-40.72535231327392
 20
122.9283146144419
 30
0.0
 10
-40.71208724563508
 20
123.1028492052874
 30
0.0
 11
-42.71201109176343
 21
121.1029253591592
 31
0.0
 11
-42.19438313977085
 21
121.1710702464808
 31
0.0
 11
-41.71203738871867
 21
121.3708593701137
 31
0.0
 11
-41.29784251710124
 21
121.6886806306253
 31
0.0
 11
-40.98002125658974
 21
122.1028755022428
 31
0.0
 11
-40.78023213295671
 21
122.5852212532949
 31
0.0
 11
-40.71208724563508
 21
123.1028492052874
 31
0.0
  0
SPLINE
  5
2EB
330
1F
100
AcDbEntity
  8
0
  6
Continuous
 62
     7
100
AcDbSpline
210
0.0
220
0.0
230
1.0
 70
     8
 71
     3
 72
    13
 73
     9
 74
     7
 42
0.000000001
 43
0.0000000001
 44
0.00000001
 40
0.0
 40
0.0
 40
0.0
 40
0.0
 40
0.5220942639361742
 40
1.044179616044402
 40
1.566259823493433
 40
2.08834003094251
 40
2.610425383050757
 40
3.132519646986986
 40
3.132519646986986
 40
3.132519646986986
 40
3.132519646986986
 10
-62.31208724563498
 20
123.1028492052874
 30
0.0
 10
-62.29882217799616
 20
122.9283146144419
 30
0.0
 10
-62.27229225485443
 20
122.5792484138626
 30
0.0
 10
-62.06240348241279
 20
122.0915064210478
 30
0.0
 10
-61.74302045188145
 20
121.6719921529127
 30
0.0
 10
-61.32350618374639
 20
121.3526091223814
 30
0.0
 10
-60.83576419093162
 20
121.1427203499397
 30
0.0
 10
-60.48669799035223
 20
121.116190426798
 30
0.0
 10
-60.31216339950674
 20
121.1029253591592
 30
0.0
 11
-62.31208724563498
 21
123.1028492052874
 31
0.0
 11
-62.24394235831341
 21
122.5852212532949
 31
0.0
 11
-62.04415323468044
 21
122.1028755022428
 31
0.0
 11
-61.72633197416889
 21
121.6886806306253
 31
0.0
 11
-61.31213710255145
 21
121.3708593701137
 31
0.0
 11
-60.82979135149931
 21
121.1710702464808
 31
0.0
 11
-60.31216339950674
 21
121.1029253591592
 31
0.0
  0
SPLINE
  5
2EC
330
1F
100
AcDbEntity
  8
0
  6
Continuous
 62
     7
100
AcDbSpline
210
0.0
220
0.0
230
1.0
 70
     8
 71
     3
 72
    17
 73
    13
 74
    11
 42
0.000000001
 43
0.0000000001
 44
0.00000001
 40
0.0
 40
0.0
 40
0.0
 40
0.0
 40
0.0445661056327897
 40
0.0873009689237575
 40
0.1141793758512317
 40
0.1484400438515516
 40
0.1664083815515806
 40
0.1827137345056457
 40
0.1970242391754346
 40
0.2098737275229523
 40
0.2230639719761507
 40
0.2353347213277968
 40
0.2353347213277968
 40
0.2353347213277968
 40
0.2353347213277968
 10
-66.412087245635
 20
121.2824305933199
 30
0.0
 10
-66.42694850218163
 20
121.2819977913379
 30
0.0
 10
-66.45606035915651
 20
121.281149971166
 30
0.0
 10
-66.49374895660128
 20
121.2750227633684
 30
0.0
 10
-66.52728295428506
 20
121.2663287971842
 30
0.0
 10
-66.55206332034757
 20
121.2570169548817
 30
0.0
 10
-66.57228932869228
 20
121.2463157754577
 30
0.0
 10
-66.58570577920095
 20
121.2371834405365
 30
0.0
 10
-66.59654996640192
 20
121.2274727068901
 30
0.0
 10
-66.6049336685094
 20
121.216919683752
 30
0.0
 10
-66.6108813186757
 20
121.2053253282211
 30
0.0
 10
-66.61169506938344
 20
121.196811445406
 30
0.0
 10
-66.61208724563505
 20
121.1927082372153
 30
0.0
 11
-66.412087245635
 21
121.2824305933199
 31
0.0
 11
-66.45659403824097
 21
121.2801322696015
 31
0.0
 11
-66.49879271575765
 21
121.2733839236098
 31
0.0
 11
-66.52478645328809
 21
121.2665447447274
 31
0.0
 11
-66.55675948073633
 21
121.254235444431
 31
0.0
 11
-66.5726013683528
 21
121.2457563084433
 31
0.0
 11
-66.58602514822849
 21
121.2365006801531
 31
0.0
 11
-66.59659991280684
 21
121.2268588505395
 31
0.0
 11
-66.60452981820424
 21
121.2167481672102
 31
0.0
 11
-66.61018160877566
 21
121.2048301206166
 31
0.0
 11
-66.61208724563505
 21
121.1927082372153
 31
0.0
  0
SPLINE
  5
2ED
330
1F
100
AcDbEntity
  8
0
  6
Continuous
 62
     7
100
AcDbSpline
210
0.0
220
0.0
230
1.0
 70
     8
 71
     3
 72
    19
 73
    15
 74
    13
 42
0.000000001
 43
0.0000000001
 44
0.00000001
 40
0.0
 40
0.0
 40
0.0
 40
0.0
 40
0.0232875941140483
 40
0.0524899901741211
 40
0.0751930415231536
 40
0.0934400552862832
 40
0.1246104861972077
 40
0.1537171961864706
 40
0.1710723815970235
 40
0.1911093887983141
 40
0.2091774759882746
 40
0.2231324927372403
 40
0.2412752856648546
 40
0.2554335589359703
 40
0.2554335589359703
 40
0.2554335589359703
 40
0.2554335589359703
 10
-66.412087245635
 20
121.9083725498158
 30
0.0
 10
-66.40432348143378
 20
121.9085280861721
 30
0.0
 10
-66.38682403966706
 20
121.9088786740257
 30
0.0
 10
-66.36188248131842
 20
121.9118019097169
 30
0.0
 10
-66.33891525810402
 20
121.9162893146813
 30
0.0
 10
-66.31569397906195
 20
121.9225678424795
 30
0.0
 10
-66.291087998444
 20
121.9316935024225
 30
0.0
 10
-66.26816741719739
 20
121.9439241893122
 30
0.0
 10
-66.2501288365017
 20
121.9568740899353
 30
0.0
 10
-66.23654748483524
 20
121.9695163213954
 30
0.0
 10
-66.22582762679079
 20
121.9832851500335
 30
0.0
 10
-66.21787249825726
 20
121.9980343364467
 30
0.0
 10
-66.2129543526257
 20
122.012864101808
 30
0.0
 10
-66.21235148822063
 20
122.023645165364
 30
0.0
 10
-66.21208724563508
 20
122.0283707452188
 30
0.0
 11
-66.412087245635
 21
121.9083725498158
 31
0.0
 11
-66.38881337936094
 21
121.9091718150586
 31
0.0
 11
-66.35979747013175
 21
121.9124667932073
 31
0.0
 11
-66.3375245141485
 21
121.9168649709903
 31
0.0
 11
-66.31991315645769
 21
121.9216392344663
 31
0.0
 11
-66.29073324440301
 21
121.9325995491807
 31
0.0
 11
-66.26513517445346
 21
121.9464537681477
 31
0.0
 11
-66.25106879171072
 21
121.9566193639137
 31
0.0
 11
-66.2364759410874
 21
121.9703500000543
 31
0.0
 11
-66.2254632642766
 21
121.9846739914645
 31
0.0
 11
-66.21885360383965
 21
121.9969644308983
 31
0.0
 11
-66.2134239889953
 21
122.0142757107264
 31
0.0
 11
-66.21208724563508
 21
122.0283707452188
 31
0.0
  0
SPLINE
  5
2EE
330
1F
100
AcDbEntity
  8
0
  6
Continuous
 62
     7
100
AcDbSpline
210
0.0
220
0.0
230
1.0
 70
     8
 71
     3
 72
    11
 73
     7
 74
     5
 42
0.000000001
 43
0.0000000001
 44
0.00000001
 40
0.0
 40
0.0
 40
0.0
 40
0.0
 40
0.0301632019558553
 40
0.0603125773235135
 40
0.1305033901365696
 40
0.2002316682183695
 40
0.2002316682183695
 40
0.2002316682183695
 40
0.2002316682183695
 10
-66.412087245635
 20
121.9083725498158
 30
0.0
 10
-66.4221417716001
 20
121.9083361529603
 30
0.0
 10
-66.44224621451178
 20
121.9082633613441
 30
0.0
 10
-66.4857393965515
 20
121.9073971523453
 30
0.0
 10
-66.54240128088293
 20
121.9052439697265
 30
0.0
 10
-66.58890983930777
 20
121.9017036603218
 30
0.0
 10
-66.61208724563505
 20
121.899939349332
 30
0.0
 11
-66.412087245635
 21
121.9083725498158
 31
0.0
 11
-66.44224984228636
 21
121.9081814346661
 31
0.0
 11
-66.47239377107053
 21
121.9076083704678
 31
0.0
 11
-66.54252809827655
 21
121.9047929856118
 31
0.0
 11
-66.61208724563505
 21
121.899939349332
 31
0.0
  0
SPLINE
  5
2EF
330
1F
100
AcDbEntity
  8
0
  6
Continuous
 62
     7
100
AcDbSpline
210
0.0
220
0.0
230
1.0
 70
     8
 71
     3
 72
    11
 73
     7
 74
     5
 42
0.000000001
 43
0.0000000001
 44
0.00000001
 40
0.0
 40
0.0
 40
0.0
 40
0.0
 40
0.0660016497039599
 40
0.1355991681526263
 40
0.2099862095190108
 40
0.2875815016978167
 40
0.2875815016978167
 40
0.2875815016978167
 40
0.2875815016978167
 10
-66.61208724563505
 20
118.0480736898989
 30
0.0
 10
-66.60893396791555
 20
118.0702583151756
 30
0.0
 10
-66.6024556033189
 20
118.1158362137459
 30
0.0
 10
-66.55474221924473
 20
118.1711732873802
 30
0.0
 10
-66.48910114059775
 20
118.2086807464303
 30
0.0
 10
-66.43811729048234
 20
118.2134557320675
 30
0.0
 10
-66.412087245635
 20
118.2158936161343
 30
0.0
 11
-66.61208724563505
 21
118.0480736898989
 31
0.0
 11
-66.59686259032713
 21
118.1122954000236
 31
0.0
 11
-66.55350860187241
 21
118.1667402977582
 31
0.0
 11
-66.48862369939869
 21
118.2031186134806
 31
0.0
 11
-66.412087245635
 21
118.2158936161343
 31
0.0
  0
SPLINE
  5
2F0
330
1F
100
AcDbEntity
  8
0
  6
Continuous
 62
     7
100
AcDbSpline
210
0.0
220
0.0
230
1.0
 70
     8
 71
     3
 72
    23
 73
    19
 74
    17
 42
0.000000001
 43
0.0000000001
 44
0.00000001
 40
0.0
 40
0.0
 40
0.0
 40
0.0
 40
0.0170891031206883
 40
0.0341754088431861
 40
0.2041316788774296
 40
0.3380034500133033
 40
0.4998486252277523
 40
0.6264555792029911
 40
0.7520419470607229
 40
0.854562538027063
 40
0.9537936485935496
 40
1.058756757164286
 40
1.176022361258955
 40
1.301297045292367
 40
1.399281786061164
 40
1.507443685876737
 40
1.625545476609132
 40
1.740611624476838
 40
1.740611624476838
 40
1.740611624476838
 40
1.740611624476838
 10
-66.412087245635
 20
121.2824305933199
 30
0.0
 10
-66.4063908583803
 20
121.2824398698698
 30
0.0
 10
-66.39499901636205
 20
121.282458428126
 30
0.0
 10
-66.32695788945817
 20
121.2830469268368
 30
0.0
 10
-66.21999763534654
 20
121.2871965064619
 30
0.0
 10
-66.06536014212557
 20
121.3012040184304
 30
0.0
 10
-65.9259346624865
 20
121.3213343714618
 30
0.0
 10
-65.79065215920053
 20
121.3489649964727
 30
0.0
 10
-65.67627741669855
 20
121.3792482602634
 30
0.0
 10
-65.5726144117524
 20
121.4134919448747
 30
0.0
 10
-65.47762293423236
 20
121.451491015555
 30
0.0
 10
-65.38118674388181
 20
121.4984673722179
 30
0.0
 10
-65.28213518393477
 20
121.5589666044137
 30
0.0
 10
-65.19341601719708
 20
121.6304862347765
 30
0.0
 10
-65.11866964683334
 20
121.7124377365041
 30
0.0
 10
-65.0604626439469
 20
121.8040830346228
 30
0.0
 10
-65.01957485667124
 20
121.912007155088
 30
0.0
 10
-65.01456135466117
 20
121.9899210046713
 30
0.0
 10
-65.01208724563503
 20
122.0283707452188
 30
0.0
 11
-66.412087245635
 21
121.2824305933199
 31
0.0
 11
-66.39499821849748
 21
121.282478420473
 31
0.0
 11
-66.37791251581439
 21
121.2826218926209
 31
0.0
 11
-66.20808724384095
 21
121.2892935237894
 31
0.0
 11
-66.07476658674386
 21
121.3014283290448
 31
0.0
 11
-65.9146098997295
 21
121.324745626119
 31
0.0
 11
-65.79059180217769
 21
121.3502178123602
 31
0.0
 11
-65.6692381269068
 21
121.3825476946132
 31
0.0
 11
-65.57193625263699
 21
121.4148403692177
 31
0.0
 11
-65.47986650208131
 21
121.451853533563
 31
0.0
 11
-65.38561893835993
 21
121.4980558158994
 31
0.0
 11
-65.28580722133552
 21
121.5596093946413
 31
0.0
 11
-65.1887665371762
 21
121.638835981827
 31
0.0
 11
-65.12310821678503
 21
121.7115683299464
 31
0.0
 11
-65.065335024354
 21
121.8030082287737
 31
0.0
 11
-65.02509076796636
 21
121.9140417098595
 31
0.0
 11
-65.01208724563503
 21
122.0283707452188
 31
0.0
  0
SPLINE
  5
2F1
330
1F
100
AcDbEntity
  8
0
  6
Continuous
 62
     7
100
AcDbSpline
210
0.0
220
0.0
230
1.0
 70
     8
 71
     3
 72
    13
 73
     9
 74
     7
 42
0.000000001
 43
0.0000000001
 44
0.00000001
 40
0.0
 40
0.0
 40
0.0
 40
0.0
 40
0.7319929772551392
 40
1.446211147506929
 40
2.127867593943904
 40
2.768178214706196
 40
3.367183193934607
 40
3.935473909861482
 40
3.935473909861482
 40
3.935473909861482
 40
3.935473909861482
 10
-46.55625552144136
 20
110.1066587004465
 30
0.0
 10
-46.31188077161672
 20
110.119550695111
 30
0.0
 10
-45.82906536578919
 20
110.1450216454327
 30
0.0
 10
-45.14314599614232
 20
110.3486490478523
 30
0.0
 10
-44.53558722598039
 20
110.6623868798757
 30
0.0
 10
-44.04667673471455
 20
111.0825214425933
 30
0.0
 10
-43.68753777832661
 20
111.5821807638657
 30
0.0
 10
-43.59364145183101
 20
111.9629175581229
 30
0.0
 10
-43.54792861052601
 20
112.1482769223085
 30
0.0
 11
-46.55625552144136
 21
110.1066587004465
 31
0.0
 11
-45.82739118691268
 21
110.1742641569395
 31
0.0
 11
-45.1414091769189
 21
110.3731014704422
 31
0.0
 11
-44.53866979847067
 21
110.6914735089008
 31
0.0
 11
-44.0546339450143
 21
111.1106476820838
 31
0.0
 11
-43.7177812566832
 21
111.6059629723011
 31
0.0
 11
-43.54792861052601
 21
112.1482769223085
 31
0.0
  0
SPLINE
  5
2F2
330
1F
100
AcDbEntity
  8
0
  6
Continuous
 62
     7
100
AcDbSpline
210
0.0
220
0.0
230
1.0
 70
     8
 71
     3
 72
    11
 73
     7
 74
     5
 42
0.000000001
 43
0.0000000001
 44
0.00000001
 40
0.0
 40
0.0
 40
0.0
 40
0.0
 40
0.4711864714878178
 40
0.958152922016347
 40
1.456401240728992
 40
1.960518140675642
 40
1.960518140675642
 40
1.960518140675642
 40
1.960518140675642
 10
-44.84353740708968
 20
111.3717685897931
 30
0.0
 10
-44.98198562881007
 20
111.2969771207727
 30
0.0
 10
-45.26351869341255
 20
111.1448894388113
 30
0.0
 10
-45.7275060642506
 20
110.9950023210817
 30
0.0
 10
-46.21572113048098
 20
110.8961022267825
 30
0.0
 10
-46.550150834816
 20
110.8840601264156
 30
0.0
 10
-46.71834468593363
 20
110.8780038320705
 30
0.0
 11
-44.84353740708968
 21
111.3717685897931
 31
0.0
 11
-45.2646183447238
 21
111.1603270242368
 31
0.0
 11
-45.72613183346607
 21
111.0049512697523
 31
0.0
 11
-46.21524184965905
 21
110.9099629522085
 31
0.0
 11
-46.71834468593363
 21
110.8780038320705
 31
0.0
  0
SPLINE
  5
2F3
330
1F
100
AcDbEntity
  8
0
  6
Continuous
 62
     7
100
AcDbSpline
210
0.0
220
0.0
230
1.0
 70
     8
 71
     3
 72
     9
 73
     5
 74
     3
 42
0.000000001
 43
0.0000000001
 44
0.00000001
 40
0.0
 40
0.0
 40
0.0
 40
0.0
 40
0.2307947354504971
 40
0.4675097338613425
 40
0.4675097338613425
 40
0.4675097338613425
 40
0.4675097338613425
 10
-44.10303906919091
 20
112.0187422361413
 30
0.0
 10
-44.15154933283453
 20
111.9588918760001
 30
0.0
 10
-44.24981424273395
 20
111.8376559092436
 30
0.0
 10
-44.36448176930281
 20
111.731789751569
 30
0.0
 10
-44.4225415802008
 20
111.678186367041
 30
0.0
 11
-44.10303906919091
 21
112.0187422361413
 31
0.0
 11
-44.2525673228394
 21
111.8429369134277
 31
0.0
 11
-44.4225415802008
 21
111.678186367041
 31
0.0
  0
SPLINE
  5
2F4
330
1F
100
AcDbEntity
  8
0
  6
Continuous
 62
     7
100
AcDbSpline
210
0.0
220
0.0
230
1.0
 70
     8
 71
     3
 72
     9
 73
     5
 74
     3
 42
0.000000001
 43
0.0000000001
 44
0.00000001
 40
0.0
 40
0.0
 40
0.0
 40
0.0
 40
0.1449667873988722
 40
0.2885579098308863
 40
0.2885579098308863
 40
0.2885579098308863
 40
0.2885579098308863
 10
-43.90628948699873
 20
112.3251600133893
 30
0.0
 10
-43.9156356349277
 20
112.2777433490906
 30
0.0
 10
-43.93423925990372
 20
112.1833599859522
 30
0.0
 10
-43.95703437881314
 20
112.0899005435269
 30
0.0
 10
-43.9683776114814
 20
112.0433936028284
 30
0.0
 11
-43.90628948699873
 21
112.3251600133893
 31
0.0
 11
-43.93538582919197
 21
112.1831432102889
 31
0.0
 11
-43.9683776114814
 21
112.0433936028284
 31
0.0
  0
SPLINE
  5
2F5
330
1F
100
AcDbEntity
  8
0
  6
Continuous
 62
     7
100
AcDbSpline
210
0.0
220
0.0
230
1.0
 70
     8
 71
     3
 72
     9
 73
     5
 74
     3
 42
0.000000001
 43
0.0000000001
 44
0.00000001
 40
0.0
 40
0.0
 40
0.0
 40
0.0
 40
0.1641777603964776
 40
0.3257006823877188
 40
0.3257006823877188
 40
0.3257006823877188
 40
0.3257006823877188
 10
-44.4225415802008
 20
111.678186367041
 30
0.0
 10
-44.44831841156383
 20
111.6298902352929
 30
0.0
 10
-44.49945526714629
 20
111.5340789547878
 30
0.0
 10
-44.55713062660941
 20
111.442056255283
 30
0.0
 10
-44.58573325431598
 20
111.3964199564801
 30
0.0
 11
-44.4225415802008
 21
111.678186367041
 31
0.0
 11
-44.50153346596342
 21
111.5342606255329
 31
0.0
 11
-44.58573325431598
 21
111.3964199564801
 31
0.0
  0
SPLINE
  5
2F6
330
1F
100
AcDbEntity
  8
0
  6
Continuous
 62
     7
100
AcDbSpline
210
0.0
220
0.0
230
1.0
 70
     8
 71
     3
 72
     9
 73
     5
 74
     3
 42
0.000000001
 43
0.0000000001
 44
0.00000001
 40
0.0
 40
0.0
 40
0.0
 40
0.0
 40
0.0336050152813693
 40
0.0703073679526732
 40
0.0703073679526732
 40
0.0703073679526732
 40
0.0703073679526732
 10
-43.70087910387611
 20
112.6903672491751
 30
0.0
 10
-43.71126139367394
 20
112.6861562678139
 30
0.0
 10
-43.7329829047503
 20
112.6773462022467
 30
0.0
 10
-43.7551430959983
 20
112.6697048603548
 30
0.0
 10
-43.76671132036711
 20
112.665715882489
 30
0.0
 11
-43.70087910387611
 21
112.6903672491751
 31
0.0
 11
-43.73212619668593
 21
112.6780013179554
 31
0.0
 11
-43.76671132036711
 21
112.665715882489
 31
0.0
  0
SPLINE
  5
2F7
330
1F
100
AcDbEntity
  8
0
  6
Continuous
 62
     7
100
AcDbSpline
210
0.0
220
0.0
230
1.0
 70
     8
 71
     3
 72
     9
 73
     5
 74
     3
 42
0.000000001
 43
0.0000000001
 44
0.00000001
 40
0.0
 40
0.0
 40
0.0
 40
0.0
 40
0.1273699248873735
 40
0.2589824951985567
 40
0.2589824951985567
 40
0.2589824951985567
 40
0.2589824951985567
 10
-44.58573325431598
 20
111.3964199564801
 30
0.0
 10
-44.62797026326945
 20
111.3921021952635
 30
0.0
 10
-44.7138511823841
 20
111.3833228696995
 30
0.0
 10
-44.79983911410053
 20
111.3756618439312
 30
0.0
 10
-44.84353740708968
 20
111.3717685897931
 30
0.0
 11
-44.58573325431598
 21
111.3964199564801
 31
0.0
 11
-44.71247016593323
 21
111.3837371724565
 31
0.0
 11
-44.84353740708968
 21
111.3717685897931
 31
0.0
  0
SPLINE
  5
2F8
330
1F
100
AcDbEntity
  8
0
  6
Continuous
 62
     7
100
AcDbSpline
210
0.0
220
0.0
230
1.0
 70
     8
 71
     3
 72
     9
 73
     5
 74
     3
 42
0.000000001
 43
0.0000000001
 44
0.00000001
 40
0.0
 40
0.0
 40
0.0
 40
0.0
 40
0.1273699248873594
 40
0.2589824951984505
 40
0.2589824951984505
 40
0.2589824951984505
 40
0.2589824951984505
 10
-58.43844123695408
 20
111.3964199564801
 30
0.0
 10
-58.39620422800061
 20
111.3921021952635
 30
0.0
 10
-58.310323308886
 20
111.3833228696995
 30
0.0
 10
-58.22433537716961
 20
111.3756618439312
 30
0.0
 10
-58.18063708418049
 20
111.3717685897931
 30
0.0
 11
-58.43844123695408
 21
111.3964199564801
 31
0.0
 11
-58.31170432533685
 21
111.3837371724565
 31
0.0
 11
-58.18063708418049
 21
111.3717685897931
 31
0.0
  0
SPLINE
  5
2F9
330
1F
100
AcDbEntity
  8
0
  6
Continuous
 62
     7
100
AcDbSpline
210
0.0
220
0.0
230
1.0
 70
     8
 71
     3
 72
     9
 73
     5
 74
     3
 42
0.000000001
 43
0.0000000001
 44
0.00000001
 40
0.0
 40
0.0
 40
0.0
 40
0.0
 40
0.1641777603964776
 40
0.3257006823877188
 40
0.3257006823877188
 40
0.3257006823877188
 40
0.3257006823877188
 10
-58.60163291106926
 20
111.678186367041
 30
0.0
 10
-58.57585607970623
 20
111.6298902352929
 30
0.0
 10
-58.52471922412376
 20
111.5340789547878
 30
0.0
 10
-58.46704386466065
 20
111.442056255283
 30
0.0
 10
-58.43844123695408
 20
111.3964199564801
 30
0.0
 11
-58.60163291106926
 21
111.678186367041
 31
0.0
 11
-58.52264102530664
 21
111.5342606255329
 31
0.0
 11
-58.43844123695408
 21
111.3964199564801
 31
0.0
  0
SPLINE
  5
2FA
330
1F
100
AcDbEntity
  8
0
  6
Continuous
 62
     7
100
AcDbSpline
210
0.0
220
0.0
230
1.0
 70
     8
 71
     3
 72
    11
 73
     7
 74
     5
 42
0.000000001
 43
0.0000000001
 44
0.00000001
 40
0.0
 40
0.0
 40
0.0
 40
0.0
 40
0.471186471487894
 40
0.9581529220163896
 40
1.456401240728979
 40
1.960518140675629
 40
1.960518140675629
 40
1.960518140675629
 40
1.960518140675629
 10
-58.18063708418049
 20
111.3717685897931
 30
0.0
 10
-58.04218886246006
 20
111.2969771207728
 30
0.0
 10
-57.76065579785756
 20
111.1448894388113
 30
0.0
 10
-57.29666842701953
 20
110.9950023210818
 30
0.0
 10
-56.80845336078919
 20
110.8961022267825
 30
0.0
 10
-56.47402365645418
 20
110.8840601264156
 30
0.0
 10
-56.30582980533654
 20
110.8780038320705
 30
0.0
 11
-58.18063708418049
 21
111.3717685897931
 31
0.0
 11
-57.75955614654628
 21
111.1603270242368
 31
0.0
 11
-57.29804265780405
 21
111.0049512697523
 31
0.0
 11
-56.80893264161112
 21
110.9099629522085
 31
0.0
 11
-56.30582980533654
 21
110.8780038320705
 31
0.0
  0
SPLINE
  5
2FB
330
1F
100
AcDbEntity
  8
0
  6
Continuous
 62
     7
100
AcDbSpline
210
0.0
220
0.0
230
1.0
 70
     8
 71
     3
 72
    24
 73
    20
 74
    18
 42
0.000000001
 43
0.0000000001
 44
0.00000001
 40
0.0
 40
0.0
 40
0.0
 40
0.0
 40
0.0170883832214279
 40
0.0341754088710112
 40
0.1711774963736844
 40
0.3380032123234601
 40
0.4998483875402097
 40
0.6264553415195067
 40
0.7421049818379352
 40
0.8545624579356144
 40
0.9537935685256062
 40
1.058756677128863
 40
1.194281311568043
 40
1.301302914818718
 40
1.399287655984236
 40
1.50744955694375
 40
1.595398467391603
 40
1.673058126167903
 40
1.74090263831569
 40
1.74090263831569
 40
1.74090263831569
 40
1.74090263831569
 10
-36.61208724563505
 20
121.2824305933199
 30
0.0
 10
-36.61778338752699
 20
121.2824398682926
 30
0.0
 10
-36.62917521876498
 20
121.2824584238418
 30
0.0
 10
-36.68623233493792
 20
121.2829519542964
 30
0.0
 10
-36.79318349991164
 20
121.2865318026563
 30
0.0
 10
-36.94793904369141
 20
121.2996350775846
 30
0.0
 10
-37.09823836092157
 20
121.3213340348482
 30
0.0
 10
-37.23027767337563
 20
121.3483018581111
 30
0.0
 10
-37.34470407188589
 20
121.3783249508826
 30
0.0
 10
-37.44848252479503
 20
121.4122611647311
 30
0.0
 10
-37.54655390210523
 20
121.4514921981778
 30
0.0
 10
-37.64845404507921
 20
121.5011295466737
 30
0.0
 10
-37.74714276244379
 20
121.5624620526275
 30
0.0
 10
-37.83489302756477
 20
121.6349979390742
 30
0.0
 10
-37.90542562670913
 20
121.7124290529146
 30
0.0
 10
-37.95860890348811
 20
121.7955989038506
 30
0.0
 10
-37.99240000672123
 20
121.8807909868407
 30
0.0
 10
-38.00939062262989
 20
121.9572011801457
 30
0.0
 10
-38.01122972824088
 20
122.0057389463108
 30
0.0
 10
-38.01208724563503
 20
122.0283707452188
 30
0.0
 11
-36.61208724563505
 21
121.2824305933199
 31
0.0
 11
-36.62917555278251
 21
121.2824784164428
 31
0.0
 11
-36.64626197545579
 21
121.2826218926209
 31
0.0
 11
-36.78318592660907
 21
121.2872482881416
 31
0.0
 11
-36.9494079045262
 21
121.3014283290448
 31
0.0
 11
-37.10956459154058
 21
121.324745626119
 31
0.0
 11
-37.23358268909249
 21
121.3502178123603
 31
0.0
 11
-37.34540837692916
 21
121.3797111139916
 31
0.0
 11
-37.45223823863319
 21
121.4148403692177
 31
0.0
 11
-37.54430798919267
 21
121.4518535335649
 31
0.0
 11
-37.63855555291013
 21
121.4980558158994
 31
0.0
 11
-37.75324555442769
 21
121.5702578247091
 31
0.0
 11
-37.83540795409385
 21
121.638835981827
 31
0.0
 11
-37.9010662744849
 21
121.7115683299463
 31
0.0
 11
-37.95883946691606
 21
121.8030082287737
 31
0.0
 11
-37.99130435256107
 21
121.8847458713627
 31
0.0
 11
-38.00761221895571
 21
121.9606739735592
 31
0.0
 11
-38.01208724563503
 21
122.0283707452188
 31
0.0
  0
SPLINE
  5
2FC
330
1F
100
AcDbEntity
  8
0
  6
Continuous
 62
     7
100
AcDbSpline
210
0.0
220
0.0
230
1.0
 70
     8
 71
     3
 72
    19
 73
    15
 74
    13
 42
0.000000001
 43
0.0000000001
 44
0.00000001
 40
0.0
 40
0.0
 40
0.0
 40
0.0
 40
0.0263864335702892
 40
0.0524906187453841
 40
0.0713225755863243
 40
0.0934405654361559
 40
0.1246109963270604
 40
0.1537177062684148
 40
0.174984048564589
 40
0.1911109290674391
 40
0.2091790158781515
 40
0.223134031779022
 40
0.2376352541528627
 40
0.255434151397388
 40
0.255434151397388
 40
0.255434151397388
 40
0.255434151397388
 10
-36.61208724563505
 20
121.9083725498158
 30
0.0
 10
-36.62088486917053
 20
121.908568698279
 30
0.0
 10
-36.6383860100532
 20
121.9089589069847
 30
0.0
 10
-36.66202391741662
 20
121.9118463105942
 30
0.0
 10
-36.68399482322905
 20
121.9160027811173
 30
0.0
 10
-36.70726839414484
 20
121.9221183960867
 30
0.0
 10
-36.73308772214823
 20
121.9316943123332
 30
0.0
 10
-36.75715714105878
 20
121.9445374301412
 30
0.0
 10
-36.77507768423892
 20
121.9577057520812
 30
0.0
 10
-36.78843035578314
 20
121.9705493863372
 30
0.0
 10
-36.79834865487189
 20
121.9832836043048
 30
0.0
 10
-36.80572020660174
 20
121.9969689284084
 30
0.0
 10
-36.81093507833489
 20
122.0116306852429
 30
0.0
 10
-36.8116779145316
 20
122.0224234301174
 30
0.0
 10
-36.81208724563498
 20
122.0283707452188
 30
0.0
 11
-36.61208724563505
 21
121.9083725498158
 31
0.0
 11
-36.63845368441243
 21
121.9093993770143
 31
0.0
 11
-36.66437702113831
 21
121.9124667932073
 31
0.0
 11
-36.68287520526798
 21
121.9159966341946
 31
0.0
 11
-36.70426133481249
 21
121.9216392344663
 31
0.0
 11
-36.73344124686692
 21
121.9325995491807
 31
0.0
 11
-36.7590393168166
 21
121.9464537681477
 31
0.0
 11
-36.77611524438846
 21
121.9591293358136
 31
0.0
 11
-36.78769855018265
 21
121.9703500000543
 31
0.0
 11
-36.79871122699599
 21
121.9846739914684
 31
0.0
 11
-36.80532088743053
 21
121.9969644308983
 31
0.0
 11
-36.80997903785867
 21
122.0106971370388
 31
0.0
 11
-36.81208724563498
 21
122.0283707452188
 31
0.0
  0
SPLINE
  5
2FD
330
1F
100
AcDbEntity
  8
0
  6
Continuous
 62
     7
100
AcDbSpline
210
0.0
220
0.0
230
1.0
 70
     8
 71
     3
 72
    11
 73
     7
 74
     5
 42
0.000000001
 43
0.0000000001
 44
0.00000001
 40
0.0
 40
0.0
 40
0.0
 40
0.0
 40
0.2884188442151442
 40
0.5874422110490474
 40
0.8946927008310472
 40
1.206411493848958
 40
1.206411493848958
 40
1.206411493848958
 40
1.206411493848958
 10
-37.70361706461233
 20
118.6550137084144
 30
0.0
 10
-37.63232327649857
 20
118.5899041549717
 30
0.0
 10
-37.48711437602041
 20
118.4572911254989
 30
0.0
 10
-37.21785511331579
 20
118.3222745589625
 30
0.0
 10
-36.92294112846371
 20
118.2324847043077
 30
0.0
 10
-36.71620268471691
 20
118.221450525606
 30
0.0
 10
-36.61208724563505
 20
118.2158936161343
 30
0.0
 11
-37.70361706461233
 21
118.6550137084144
 31
0.0
 11
-37.48212248673232
 21
118.4702826000336
 31
0.0
 11
-37.21733600712787
 21
118.3313470198165
 31
0.0
 11
-36.92243283709303
 21
118.2451206609598
 31
0.0
 11
-36.61208724563505
 21
118.2158936161343
 31
0.0
  0
SPLINE
  5
2FE
330
1F
100
AcDbEntity
  8
0
  6
Continuous
 62
     7
100
AcDbSpline
210
0.0
220
0.0
230
1.0
 70
     8
 71
     3
 72
    11
 73
     7
 74
     5
 42
0.000000001
 43
0.0000000001
 44
0.00000001
 40
0.0
 40
0.0
 40
0.0
 40
0.0
 40
0.0301632022180612
 40
0.0603125773239332
 40
0.1306102295909472
 40
0.2002316615223014
 40
0.2002316615223014
 40
0.2002316615223014
 40
0.2002316615223014
 10
-36.61208724563505
 20
121.9083725498158
 30
0.0
 10
-36.60203271953851
 20
121.9083361529165
 30
0.0
 10
-36.58192827653858
 20
121.908263361213
 30
0.0
 10
-36.53839948880785
 20
121.9073964440083
 30
0.0
 10
-36.48173761647193
 20
121.9052421622259
 30
0.0
 10
-36.43522911131986
 20
121.9017013443322
 30
0.0
 10
-36.41208724563501
 20
121.8999394837273
 30
0.0
 11
-36.61208724563505
 21
121.9083725498158
 31
0.0
 11
-36.58192464872184
 21
121.9081814346628
 31
0.0
 11
-36.55178072019953
 21
121.9076083704678
 31
0.0
 11
-36.48153969927307
 21
121.904787212056
 31
0.0
 11
-36.41208724563501
 21
121.8999394837273
 31
0.0
  0
SPLINE
  5
2FF
330
1F
100
AcDbEntity
  8
0
  6
Continuous
 62
     7
100
AcDbSpline
210
0.0
220
0.0
230
1.0
 70
     8
 71
     3
 72
    19
 73
    15
 74
    13
 42
0.000000001
 43
0.0000000001
 44
0.00000001
 40
0.0
 40
0.0
 40
0.0
 40
0.0
 40
0.0225228326691522
 40
0.0448080055050736
 40
0.0664045602391983
 40
0.0873326867500509
 40
0.1243424723908798
 40
0.1484745382036737
 40
0.1683625972488017
 40
0.182748120487705
 40
0.1970586251917272
 40
0.2099081135757905
 40
0.2230983580874102
 40
0.235369107465754
 40
0.235369107465754
 40
0.235369107465754
 40
0.235369107465754
 10
-36.61208724563505
 20
121.2824305933199
 30
0.0
 10
-36.60457876306139
 20
121.2823190044257
 30
0.0
 10
-36.58964102710497
 20
121.2820970032679
 30
0.0
 10
-36.56756319237827
 20
121.2803125720034
 30
0.0
 10
-36.54613295419635
 20
121.2775089684104
 30
0.0
 10
-36.5200712626179
 20
121.2725934488005
 30
0.0
 10
-36.49362274328374
 20
121.2653127163396
 30
0.0
 10
-36.46852986125238
 20
121.2551999167024
 30
0.0
 10
-36.45132345201946
 20
121.2459910921324
 30
0.0
 10
-36.43799007484651
 20
121.2367553836183
 30
0.0
 10
-36.42762444385426
 20
121.2274725037434
 30
0.0
 10
-36.41924084386903
 20
121.2169197373302
 30
0.0
 10
-36.41329316780543
 20
121.2053253158131
 30
0.0
 10
-36.41247942028049
 20
121.1968114413833
 30
0.0
 10
-36.41208724563501
 20
121.1927082372174
 30
0.0
 11
-36.61208724563505
 21
121.2824305933199
 31
0.0
 11
-36.58957196706413
 21
121.2818476936789
 31
0.0
 11
-36.56735475476069
 21
121.2801086098282
 31
0.0
 11
-36.54594468238326
 21
121.2772766527936
 31
0.0
 11
-36.52538177551253
 21
121.2733839236098
 31
0.0
 11
-36.4897548040272
 21
121.2633617917965
 31
0.0
 11
-36.46741501053373
 21
121.254235444431
 31
0.0
 11
-36.44993509211847
 21
121.2447492791663
 31
0.0
 11
-36.43814934304157
 21
121.2365006801531
 31
0.0
 11
-36.4275745784599
 21
121.2268588505358
 31
0.0
 11
-36.41964467306593
 21
121.2167481672102
 31
0.0
 11
-36.41399288249431
 21
121.2048301206167
 31
0.0
 11
-36.41208724563501
 21
121.1927082372174
 31
0.0
  0
SPLINE
  5
300
330
1F
100
AcDbEntity
  8
0
  6
Continuous
 62
     7
100
AcDbSpline
210
0.0
220
0.0
230
1.0
 70
     8
 71
     3
 72
    11
 73
     7
 74
     5
 42
0.000000001
 43
0.0000000001
 44
0.00000001
 40
0.0
 40
0.0
 40
0.0
 40
0.0
 40
0.0660016497039746
 40
0.135599168152672
 40
0.2099862095190441
 40
0.2875815016977519
 40
0.2875815016977519
 40
0.2875815016977519
 40
0.2875815016977519
 10
-36.41208724563501
 20
118.0480736898989
 30
0.0
 10
-36.41524052335451
 20
118.0702583151756
 30
0.0
 10
-36.42171888795122
 20
118.1158362137459
 30
0.0
 10
-36.46943227202545
 20
118.1711732873802
 30
0.0
 10
-36.53507335067238
 20
118.2086807464302
 30
0.0
 10
-36.58605720078778
 20
118.2134557320675
 30
0.0
 10
-36.61208724563505
 20
118.2158936161343
 30
0.0
 11
-36.41208724563501
 21
118.0480736898989
 31
0.0
 11
-36.42731190094298
 21
118.1122954000236
 31
0.0
 11
-36.47066588939776
 21
118.1667402977582
 31
0.0
 11
-36.53555079187147
 21
118.2031186134806
 31
0.0
 11
-36.61208724563505
 21
118.2158936161343
 31
0.0
  0
SPLINE
  5
301
330
1F
100
AcDbEntity
  8
0
  6
Continuous
 62
     7
100
AcDbSpline
210
0.0
220
0.0
230
1.0
 70
     8
 71
     3
 72
    13
 73
     9
 74
     7
 42
0.000000001
 43
0.0000000001
 44
0.00000001
 40
0.0
 40
0.0
 40
0.0
 40
0.0
 40
0.7319929772551462
 40
1.446211147506929
 40
2.127867593943911
 40
2.768178214706198
 40
3.367183193934608
 40
3.935473909861483
 40
3.935473909861483
 40
3.935473909861483
 40
3.935473909861483
 10
-56.4679189698287
 20
110.1066587004465
 30
0.0
 10
-56.71229371965334
 20
110.119550695111
 30
0.0
 10
-57.19510912548087
 20
110.1450216454327
 30
0.0
 10
-57.88102849512774
 20
110.3486490478524
 30
0.0
 10
-58.48858726528968
 20
110.6623868798757
 30
0.0
 10
-58.97749775655551
 20
111.0825214425932
 30
0.0
 10
-59.33663671294346
 20
111.5821807638658
 30
0.0
 10
-59.43053303943906
 20
111.9629175581229
 30
0.0
 10
-59.47624588074405
 20
112.1482769223085
 30
0.0
 11
-56.4679189698287
 21
110.1066587004465
 31
0.0
 11
-57.19678330435739
 21
110.1742641569395
 31
0.0
 11
-57.88276531435116
 21
110.3731014704422
 31
0.0
 11
-58.4855046927994
 21
110.6914735089008
 31
0.0
 11
-58.96954054625576
 21
111.1106476820838
 31
0.0
 11
-59.30639323458686
 21
111.6059629723011
 31
0.0
 11
-59.47624588074405
 21
112.1482769223085
 31
0.0
  0
SPLINE
  5
302
330
1F
100
AcDbEntity
  8
0
  6
Continuous
 62
     7
100
AcDbSpline
210
0.0
220
0.0
230
1.0
 70
     8
 71
     3
 72
     9
 73
     5
 74
     3
 42
0.000000001
 43
0.0000000001
 44
0.00000001
 40
0.0
 40
0.0
 40
0.0
 40
0.0
 40
0.2307947354504418
 40
0.4675097338613536
 40
0.4675097338613536
 40
0.4675097338613536
 40
0.4675097338613536
 10
-58.92113542207915
 20
112.0187422361413
 30
0.0
 10
-58.87262515843555
 20
111.9588918760001
 30
0.0
 10
-58.77436024853623
 20
111.8376559092436
 30
0.0
 10
-58.65969272196727
 20
111.731789751569
 30
0.0
 10
-58.60163291106926
 20
111.678186367041
 30
0.0
 11
-58.92113542207915
 21
112.0187422361413
 31
0.0
 11
-58.77160716843075
 21
111.8429369134277
 31
0.0
 11
-58.60163291106926
 21
111.678186367041
 31
0.0
  0
SPLINE
  5
303
330
1F
100
AcDbEntity
  8
0
  6
Continuous
 62
     7
100
AcDbSpline
210
0.0
220
0.0
230
1.0
 70
     8
 71
     3
 72
     9
 73
     5
 74
     3
 42
0.000000001
 43
0.0000000001
 44
0.00000001
 40
0.0
 40
0.0
 40
0.0
 40
0.0
 40
0.092736656126769
 40
0.1851983926327178
 40
0.1851983926327178
 40
0.1851983926327178
 40
0.1851983926327178
 10
-43.70075856211474
 20
112.8755595848699
 30
0.0
 10
-43.70040506999688
 20
112.8446481295206
 30
0.0
 10
-43.69969915369422
 20
112.7829168563655
 30
0.0
 10
-43.70048616992386
 20
112.7211865728267
 30
0.0
 10
-43.70087910387611
 20
112.6903672491751
 30
0.0
 11
-43.70075856211474
 21
112.8755595848699
 31
0.0
 11
-43.70007243784456
 21
112.7828254668873
 31
0.0
 11
-43.70087910387611
 21
112.6903672491751
 31
0.0
  0
SPLINE
  5
304
330
1F
100
AcDbEntity
  8
0
  6
Continuous
 62
     7
100
AcDbSpline
210
0.0
220
0.0
230
1.0
 70
     8
 71
     3
 72
     9
 73
     5
 74
     3
 42
0.000000001
 43
0.0000000001
 44
0.00000001
 40
0.0
 40
0.0
 40
0.0
 40
0.0
 40
0.1449667873988466
 40
0.28855790983089
 40
0.28855790983089
 40
0.28855790983089
 40
0.28855790983089
 10
-59.11788500427133
 20
112.3251600133893
 30
0.0
 10
-59.10853885634243
 20
112.2777433490905
 30
0.0
 10
-59.08993523136652
 20
112.1833599859522
 30
0.0
 10
-59.06714011245698
 20
112.089900543527
 30
0.0
 10
-59.05579687978866
 20
112.0433936028284
 30
0.0
 11
-59.11788500427133
 21
112.3251600133893
 31
0.0
 11
-59.08878866207822
 21
112.1831432102889
 31
0.0
 11
-59.05579687978866
 21
112.0433936028284
 31
0.0
  0
SPLINE
  5
305
330
1F
100
AcDbEntity
  8
0
  6
Continuous
 62
     7
100
AcDbSpline
210
0.0
220
0.0
230
1.0
 70
     8
 71
     3
 72
     9
 73
     5
 74
     3
 42
0.000000001
 43
0.0000000001
 44
0.00000001
 40
0.0
 40
0.0
 40
0.0
 40
0.0
 40
0.0667317568665866
 40
0.1369020692889051
 40
0.1369020692889051
 40
0.1369020692889051
 40
0.1369020692889051
 10
-59.05579687978866
 20
112.0433936028284
 30
0.0
 10
-59.03395611099024
 20
112.0391748725554
 30
0.0
 10
-58.98914915806578
 20
112.0305200488474
 30
0.0
 10
-58.94418313762967
 20
112.0227333594789
 30
0.0
 10
-58.92113542207915
 20
112.0187422361413
 30
0.0
 11
-59.05579687978866
 21
112.0433936028284
 31
0.0
 11
-58.99023677729086
 21
112.0309436894318
 31
0.0
 11
-58.92113542207915
 21
112.0187422361413
 31
0.0
  0
SPLINE
  5
306
330
1F
100
AcDbEntity
  8
0
  6
Continuous
 62
     7
100
AcDbSpline
210
0.0
220
0.0
230
1.0
 70
     8
 71
     3
 72
     9
 73
     5
 74
     3
 42
0.000000001
 43
0.0000000001
 44
0.00000001
 40
0.0
 40
0.0
 40
0.0
 40
0.0
 40
0.0667317568667122
 40
0.1369020692889118
 40
0.1369020692889118
 40
0.1369020692889118
 40
0.1369020692889118
 10
-43.9683776114814
 20
112.0433936028284
 30
0.0
 10
-43.99021838027985
 20
112.0391748725554
 30
0.0
 10
-44.03502533320435
 20
112.0305200488474
 30
0.0
 10
-44.07999135364045
 20
112.0227333594789
 30
0.0
 10
-44.10303906919091
 20
112.0187422361413
 30
0.0
 11
-43.9683776114814
 21
112.0433936028284
 31
0.0
 11
-44.03393771397933
 21
112.0309436894318
 31
0.0
 11
-44.10303906919091
 21
112.0187422361413
 31
0.0
  0
SPLINE
  5
307
330
1F
100
AcDbEntity
  8
0
  6
Continuous
 62
     7
100
AcDbSpline
210
0.0
220
0.0
230
1.0
 70
     8
 71
     3
 72
     9
 73
     5
 74
     3
 42
0.000000001
 43
0.0000000001
 44
0.00000001
 40
0.0
 40
0.0
 40
0.0
 40
0.0
 40
0.1828383493297567
 40
0.3684743496099856
 40
0.3684743496099856
 40
0.3684743496099856
 40
0.3684743496099856
 10
-43.76671132036711
 20
112.665715882489
 30
0.0
 10
-43.78572535073103
 20
112.6077201755127
 30
0.0
 10
-43.82404436809114
 20
112.4908413632364
 30
0.0
 10
-43.87873602528387
 20
112.380665963834
 30
0.0
 10
-43.90628948699873
 20
112.3251600133893
 30
0.0
 11
-43.76671132036711
 21
112.665715882489
 31
0.0
 11
-43.82778466178495
 21
112.4933792667358
 31
0.0
 11
-43.90628948699873
 21
112.3251600133893
 31
0.0
  0
SPLINE
  5
308
330
1F
100
AcDbEntity
  8
0
  6
Continuous
 62
     7
100
AcDbSpline
210
0.0
220
0.0
230
1.0
 70
     8
 71
     3
 72
     9
 73
     5
 74
     3
 42
0.000000001
 43
0.0000000001
 44
0.00000001
 40
0.0
 40
0.0
 40
0.0
 40
0.0
 40
0.092736656126769
 40
0.1851983926327177
 40
0.1851983926327177
 40
0.1851983926327177
 40
0.1851983926327177
 10
-59.32341592915532
 20
112.8755595848699
 30
0.0
 10
-59.32376942127318
 20
112.8446481295206
 30
0.0
 10
-59.32447533757585
 20
112.7829168563655
 30
0.0
 10
-59.3236883213462
 20
112.7211865728267
 30
0.0
 10
-59.32329538739396
 20
112.6903672491751
 30
0.0
 11
-59.32341592915532
 21
112.8755595848699
 31
0.0
 11
-59.3241020534255
 21
112.7828254668873
 31
0.0
 11
-59.32329538739396
 21
112.6903672491751
 31
0.0
  0
SPLINE
  5
309
330
1F
100
AcDbEntity
  8
0
  6
Continuous
 62
     7
100
AcDbSpline
210
0.0
220
0.0
230
1.0
 70
     8
 71
     3
 72
     9
 73
     5
 74
     3
 42
0.000000001
 43
0.0000000001
 44
0.00000001
 40
0.0
 40
0.0
 40
0.0
 40
0.0
 40
0.0336050152813429
 40
0.070307367952687
 40
0.070307367952687
 40
0.070307367952687
 40
0.070307367952687
 10
-59.32329538739396
 20
112.6903672491751
 30
0.0
 10
-59.31291309759613
 20
112.686156267814
 30
0.0
 10
-59.29119158651977
 20
112.6773462022466
 30
0.0
 10
-59.26903139527177
 20
112.6697048603547
 30
0.0
 10
-59.25746317090295
 20
112.665715882489
 30
0.0
 11
-59.32329538739396
 21
112.6903672491751
 31
0.0
 11
-59.29204829458418
 21
112.6780013179554
 31
0.0
 11
-59.25746317090295
 21
112.665715882489
 31
0.0
  0
SPLINE
  5
30A
330
1F
100
AcDbEntity
  8
0
  6
Continuous
 62
     7
100
AcDbSpline
210
0.0
220
0.0
230
1.0
 70
     8
 71
     3
 72
     9
 73
     5
 74
     3
 42
0.000000001
 43
0.0000000001
 44
0.00000001
 40
0.0
 40
0.0
 40
0.0
 40
0.0
 40
0.1828383493297425
 40
0.3684743496099894
 40
0.3684743496099894
 40
0.3684743496099894
 40
0.3684743496099894
 10
-59.25746317090295
 20
112.665715882489
 30
0.0
 10
-59.23844914053906
 20
112.6077201755127
 30
0.0
 10
-59.20013012317897
 20
112.4908413632363
 30
0.0
 10
-59.14543846598623
 20
112.380665963834
 30
0.0
 10
-59.11788500427133
 20
112.3251600133893
 30
0.0
 11
-59.25746317090295
 21
112.665715882489
 31
0.0
 11
-59.19638982948516
 21
112.4933792667358
 31
0.0
 11
-59.11788500427133
 21
112.3251600133893
 31
0.0
  0
SPLINE
  5
30B
330
1F
100
AcDbEntity
  8
0
  6
Continuous
 62
     7
100
AcDbSpline
210
0.0
220
0.0
230
1.0
 70
     8
 71
     3
 72
    11
 73
     7
 74
     5
 42
0.000000001
 43
0.0000000001
 44
0.00000001
 40
0.0
 40
0.0
 40
0.0
 40
0.0
 40
0.0898528749611779
 40
0.2475870098932949
 40
0.4828401523871647
 40
0.7890371610749658
 40
0.7890371610749658
 40
0.7890371610749658
 40
0.7890371610749658
 10
-43.00550804753834
 20
114.7029253591584
 30
0.0
 10
-43.03301611603886
 20
114.6891366638216
 30
0.0
 10
-43.10881379494717
 20
114.6511422954999
 30
0.0
 10
-43.16489008502541
 20
114.4875813603596
 30
0.0
 10
-43.2312814664039
 20
114.269511104144
 30
0.0
 10
-43.25962692931294
 20
114.0900104837758
 30
0.0
 10
-43.2756566550255
 20
113.988500578532
 30
0.0
 11
-43.00550804753834
 21
114.7029253591584
 31
0.0
 11
-43.08183632798807
 21
114.6555171991098
 31
0.0
 11
-43.15454605170828
 21
114.515540933232
 31
0.0
 11
-43.22019015787342
 21
114.2896318981117
 31
0.0
 11
-43.2756566550255
 21
113.988500578532
 31
0.0
  0
SPLINE
  5
30C
330
1F
100
AcDbEntity
  8
0
  6
Continuous
 62
     7
100
AcDbSpline
210
0.0
220
0.0
230
1.0
 70
     8
 71
     3
 72
    11
 73
     7
 74
     5
 42
0.000000001
 43
0.0000000001
 44
0.00000001
 40
0.0
 40
0.0
 40
0.0
 40
0.0
 40
0.1438238668485853
 40
0.3963409399388739
 40
0.7729667065537249
 40
1.263160336179951
 40
1.263160336179951
 40
1.263160336179951
 40
1.263160336179951
 10
-43.00540490830076
 20
115.9036226549545
 30
0.0
 10
-43.04943243521964
 20
115.881544866297
 30
0.0
 10
-43.17076076606763
 20
115.8207042429399
 30
0.0
 10
-43.26048989621832
 20
115.5588481849436
 30
0.0
 10
-43.36674405811309
 20
115.2097267198329
 30
0.0
 10
-43.41209786124227
 20
114.9223561663362
 30
0.0
 10
-43.43774581951789
 20
114.759845710156
 30
0.0
 11
-43.00540490830076
 21
115.9036226549545
 31
0.0
 11
-43.12756932650511
 21
115.8277203425025
 31
0.0
 11
-43.24393843622522
 21
115.6036152218971
 31
0.0
 11
-43.34899176696602
 21
115.2419375125889
 31
0.0
 11
-43.43774581951789
 21
114.759845710156
 31
0.0
  0
SPLINE
  5
30D
330
1F
100
AcDbEntity
  8
0
  6
Continuous
 62
     7
100
AcDbSpline
210
0.0
220
0.0
230
1.0
 70
     8
 71
     3
 72
    11
 73
     7
 74
     5
 42
0.000000001
 43
0.0000000001
 44
0.00000001
 40
0.0
 40
0.0
 40
0.0
 40
0.0
 40
0.1438238668485793
 40
0.3963409399388449
 40
0.772966706553698
 40
1.263160336179933
 40
1.263160336179933
 40
1.263160336179933
 40
1.263160336179933
 10
-60.0187695829693
 20
115.9036226549545
 30
0.0
 10
-59.97474205605044
 20
115.881544866297
 30
0.0
 10
-59.85341372520244
 20
115.82070424294
 30
0.0
 10
-59.76368459505181
 20
115.5588481849436
 30
0.0
 10
-59.65743043315703
 20
115.2097267198329
 30
0.0
 10
-59.61207663002779
 20
114.9223561663362
 30
0.0
 10
-59.58642867175217
 20
114.759845710156
 30
0.0
 11
-60.0187695829693
 21
115.9036226549545
 31
0.0
 11
-59.89660516476496
 21
115.8277203425025
 31
0.0
 11
-59.7802360550449
 21
115.6036152218971
 31
0.0
 11
-59.67518272430409
 21
115.2419375125889
 31
0.0
 11
-59.58642867175217
 21
114.759845710156
 31
0.0
  0
SPLINE
  5
30E
330
1F
100
AcDbEntity
  8
0
  6
Continuous
 62
     7
100
AcDbSpline
210
0.0
220
0.0
230
1.0
 70
     8
 71
     3
 72
    11
 73
     7
 74
     5
 42
0.000000001
 43
0.0000000001
 44
0.00000001
 40
0.0
 40
0.0
 40
0.0
 40
0.0
 40
0.0898528749611417
 40
0.2475870098932783
 40
0.4828401523871481
 40
0.7890371610749491
 40
0.7890371610749491
 40
0.7890371610749491
 40
0.7890371610749491
 10
-60.01866644373172
 20
114.7029253591584
 30
0.0
 10
-59.99115837523123
 20
114.6891366638216
 30
0.0
 10
-59.91536069632291
 20
114.6511422954999
 30
0.0
 10
-59.85928440624463
 20
114.4875813603596
 30
0.0
 10
-59.7928930248662
 20
114.269511104144
 30
0.0
 10
-59.7645475619571
 20
114.0900104837758
 30
0.0
 10
-59.74851783624456
 20
113.988500578532
 30
0.0
 11
-60.01866644373172
 21
114.7029253591584
 31
0.0
 11
-59.94233816328203
 21
114.6555171991098
 31
0.0
 11
-59.86962843956178
 21
114.515540933232
 31
0.0
 11
-59.80398433339664
 21
114.2896318981117
 31
0.0
 11
-59.74851783624456
 21
113.988500578532
 31
0.0
  0
SPLINE
  5
30F
330
1F
100
AcDbEntity
  8
0
  6
Continuous
 62
     7
100
AcDbSpline
210
0.0
220
0.0
230
1.0
 70
     8
 71
     3
 72
    11
 73
     7
 74
     5
 42
0.000000001
 43
0.0000000001
 44
0.00000001
 40
0.0
 40
0.0
 40
0.0
 40
0.0
 40
0.6550836221909104
 40
1.391125113505728
 40
2.157223215802685
 40
2.93647800861037
 40
2.93647800861037
 40
2.93647800861037
 40
2.93647800861037
 10
-36.29294959422452
 20
244.5440348668338
 30
0.0
 10
-36.15272525251461
 20
244.3762217397652
 30
0.0
 10
-35.85494709309974
 20
244.0198564549278
 30
0.0
 10
-35.49935028501177
 20
243.3898825353113
 30
0.0
 10
-35.25730950061825
 20
242.6602990929731
 30
0.0
 10
-35.2272466411906
 20
242.1441876515337
 30
0.0
 10
-35.21208724563508
 20
241.88393491767
 30
0.0
 11
-36.29294959422452
 21
244.5440348668338
 31
0.0
 11
-35.8874585998359
 21
244.0295335484188
 31
0.0
 11
-35.52549221727259
 21
243.3886455571769
 31
0.0
 11
-35.29161001247677
 21
242.6591214523425
 31
0.0
 11
-35.21208724563508
 21
241.88393491767
 31
0.0
  0
SPLINE
  5
310
330
1F
100
AcDbEntity
  8
0
  6
Continuous
 62
     7
100
AcDbSpline
210
0.0
220
0.0
230
1.0
 70
     8
 71
     3
 72
    11
 73
     7
 74
     5
 42
0.000000001
 43
0.0000000001
 44
0.00000001
 40
0.0
 40
0.0
 40
0.0
 40
0.0
 40
0.6678027373297677
 40
1.202689422192933
 40
1.707106273314132
 40
2.224252533075219
 40
2.224252533075219
 40
2.224252533075219
 40
2.224252533075219
 10
-36.29294959422452
 20
244.5440348668338
 30
0.0
 10
-36.43588868132507
 20
244.715340758714
 30
0.0
 10
-36.69331699634534
 20
245.0238566844981
 30
0.0
 10
-37.12945817440252
 20
245.3915196998924
 30
0.0
 10
-37.52327018219689
 20
245.7287920162431
 30
0.0
 10
-37.78140936290799
 20
245.950935510803
 30
0.0
 10
-37.91208724563501
 20
246.0633913001397
 30
0.0
 11
-36.29294959422452
 21
244.5440348668338
 31
0.0
 11
-36.73713358143723
 21
245.0426941517469
 31
0.0
 11
-37.13656385420859
 21
245.3984457856932
 31
0.0
 11
-37.5199674548132
 21
245.7262232082798
 31
0.0
 11
-37.91208724563501
 21
246.0633913001397
 31
0.0
  0
SPLINE
  5
311
330
1F
100
AcDbEntity
  8
0
  6
Continuous
 62
     7
100
AcDbSpline
210
0.0
220
0.0
230
1.0
 70
     8
 71
     3
 72
    11
 73
     7
 74
     5
 42
0.000000001
 43
0.0000000001
 44
0.00000001
 40
0.0
 40
0.0
 40
0.0
 40
0.0
 40
0.0847630961070881
 40
0.1552958424803016
 40
0.2305143435901247
 40
0.3237507324020723
 40
0.3237507324020723
 40
0.3237507324020723
 40
0.3237507324020723
 10
-67.81208724563498
 20
251.6516676473588
 30
0.0
 10
-67.81049304382385
 20
251.6230918097083
 30
0.0
 10
-67.80757226809706
 20
251.5707375566033
 30
0.0
 10
-67.76393659400007
 20
251.5025752818605
 30
0.0
 10
-67.68885005643098
 20
251.4671345042111
 30
0.0
 10
-67.63244221719437
 20
251.4647249387398
 30
0.0
 10
-67.60122161316178
 20
251.4633913001389
 30
0.0
 11
-67.81208724563498
 21
251.6516676473588
 31
0.0
 11
-67.79941693030536
 21
251.5678568709043
 31
0.0
 11
-67.76056081858837
 21
251.508992014275
 31
0.0
 11
-67.69381684484871
 21
251.4743067819898
 31
0.0
 11
-67.60122161316178
 21
251.4633913001389
 31
0.0
  0
SPLINE
  5
312
330
1F
100
AcDbEntity
  8
0
  6
Continuous
 62
     7
100
AcDbSpline
210
0.0
220
0.0
230
1.0
 70
     8
 71
     3
 72
    11
 73
     7
 74
     5
 42
0.000000001
 43
0.0000000001
 44
0.00000001
 40
0.0
 40
0.0
 40
0.0
 40
0.0
 40
0.0847630961059056
 40
0.1552958424802792
 40
0.2305143435904769
 40
0.323750732402175
 40
0.323750732402175
 40
0.323750732402175
 40
0.323750732402175
 10
-35.21208724563508
 20
251.6516676473588
 30
0.0
 10
-35.21368144744619
 20
251.6230918097087
 30
0.0
 10
-35.2166022231729
 20
251.5707375566038
 30
0.0
 10
-35.26023789726972
 20
251.5025752818605
 30
0.0
 10
-35.33532443483922
 20
251.4671345042112
 30
0.0
 10
-35.3917322740759
 20
251.4647249387398
 30
0.0
 10
-35.42295287810839
 20
251.4633913001389
 30
0.0
 11
-35.21208724563508
 21
251.6516676473588
 31
0.0
 11
-35.22475756096433
 21
251.5678568709055
 31
0.0
 11
-35.26361367268169
 21
251.508992014275
 31
0.0
 11
-35.3303576464217
 21
251.4743067819896
 31
0.0
 11
-35.42295287810839
 21
251.4633913001389
 31
0.0
  0
SPLINE
  5
313
330
1F
100
AcDbEntity
  8
0
  6
Continuous
 62
     7
100
AcDbSpline
210
0.0
220
0.0
230
1.0
 70
     8
 71
     3
 72
     9
 73
     5
 74
     3
 42
0.000000001
 43
0.0000000001
 44
0.00000001
 40
0.0
 40
0.0
 40
0.0
 40
0.0
 40
0.008142143877873
 40
0.0162713110389582
 40
0.0162713110389582
 40
0.0162713110389582
 40
0.0162713110389582
 10
-59.32341592915532
 20
255.4737375872267
 30
0.0
 10
-59.32376924300173
 20
255.4710322566473
 30
0.0
 10
-59.32447528775514
 20
255.4656259064041
 30
0.0
 10
-59.32368848495315
 20
255.46023077239
 30
0.0
 10
-59.32329538739396
 20
255.4575353572818
 30
0.0
 11
-59.32341592915532
 21
255.4737375872267
 31
0.0
 11
-59.3241020534255
 21
255.4656244031813
 31
0.0
 11
-59.32329538739396
 21
255.4575353572818
 31
0.0
  0
SPLINE
  5
314
330
1F
100
AcDbEntity
  8
0
  6
Continuous
 62
     7
100
AcDbSpline
210
0.0
220
0.0
230
1.0
 70
     8
 71
     3
 72
     9
 73
     5
 74
     3
 42
0.000000001
 43
0.0000000001
 44
0.00000001
 40
0.0
 40
0.0
 40
0.0
 40
0.0
 40
0.2100483570410965
 40
0.4291422466109445
 40
0.4291422466109445
 40
0.4291422466109445
 40
0.4291422466109445
 10
-58.92113542207915
 20
256.2821771158747
 30
0.0
 10
-58.87238811952579
 20
256.3325721522007
 30
0.0
 10
-58.77279424454751
 20
256.435532424582
 30
0.0
 10
-58.65948282570211
 20
256.5231865638108
 30
0.0
 10
-58.60163291106926
 20
256.5679374200318
 30
0.0
 11
-58.92113542207915
 21
256.2821771158747
 31
0.0
 11
-58.77160716843075
 21
256.4296952973227
 31
0.0
 11
-58.60163291106926
 21
256.5679374200318
 31
0.0
  0
SPLINE
  5
315
330
1F
100
AcDbEntity
  8
0
  6
Continuous
 62
     7
100
AcDbSpline
210
0.0
220
0.0
230
1.0
 70
     8
 71
     3
 72
     9
 73
     5
 74
     3
 42
0.000000001
 43
0.0000000001
 44
0.00000001
 40
0.0
 40
0.0
 40
0.0
 40
0.0
 40
0.1925540508111774
 40
0.3820092673861587
 40
0.3820092673861587
 40
0.3820092673861587
 40
0.3820092673861587
 10
-58.43844123695408
 20
256.5432860533448
 30
0.0
 10
-58.39673948776085
 20
256.5921055004388
 30
0.0
 10
-58.31400709413147
 20
256.6889587142396
 30
0.0
 10
-58.22485268741255
 20
256.7799338800721
 30
0.0
 10
-58.18063708418049
 20
256.8250524639068
 30
0.0
 11
-58.43844123695408
 21
256.5432860533448
 31
0.0
 11
-58.31170432533685
 21
256.6882509380765
 31
0.0
 11
-58.18063708418049
 21
256.8250524639068
 31
0.0
  0
SPLINE
  5
316
330
1F
100
AcDbEntity
  8
0
  6
Continuous
 62
     7
100
AcDbSpline
210
0.0
220
0.0
230
1.0
 70
     8
 71
     3
 72
    11
 73
     7
 74
     5
 42
0.000000001
 43
0.0000000001
 44
0.00000001
 40
0.0
 40
0.0
 40
0.0
 40
0.0
 40
0.4569323836677509
 40
0.9365077501659564
 40
1.432069492035767
 40
1.935886531239849
 40
1.935886531239849
 40
1.935886531239849
 40
1.935886531239849
 10
-58.18063708418049
 20
256.8250524639068
 30
0.0
 10
-58.0416743985442
 20
256.8879487987359
 30
0.0
 10
-57.7568628172839
 20
257.0168582407892
 30
0.0
 10
-57.29440760728519
 20
257.1415983727405
 30
0.0
 10
-56.80723438416901
 20
257.2242888939459
 30
0.0
 10
-56.47388254165506
 20
257.2343155548178
 30
0.0
 10
-56.30582980533654
 20
257.2393702900008
 30
0.0
 11
-58.18063708418049
 21
256.8250524639068
 31
0.0
 11
-57.75955614654628
 21
257.0024730035809
 31
0.0
 11
-57.29804265780405
 21
257.132848741863
 31
0.0
 11
-56.80893264161112
 21
257.2125534040803
 31
0.0
 11
-56.30582980533654
 21
257.2393702900008
 31
0.0
  0
SPLINE
  5
317
330
1F
100
AcDbEntity
  8
0
  6
Continuous
 62
     7
100
AcDbSpline
210
0.0
220
0.0
230
1.0
 70
     8
 71
     3
 72
     9
 73
     5
 74
     3
 42
0.000000001
 43
0.0000000001
 44
0.00000001
 40
0.0
 40
0.0
 40
0.0
 40
0.0
 40
0.0316381773672623
 40
0.0668226219399901
 40
0.0668226219399901
 40
0.0668226219399901
 40
0.0668226219399901
 10
-59.11788500427133
 20
256.0250620719997
 30
0.0
 10
-59.10823121645019
 20
256.020807556326
 30
0.0
 10
-59.08784155717657
 20
256.011821662381
 30
0.0
 10
-59.06684978492494
 20
256.0043465848777
 30
0.0
 10
-59.05579687978866
 20
256.0004107053137
 30
0.0
 11
-59.11788500427133
 21
256.0250620719997
 31
0.0
 11
-59.08878866207822
 21
256.0126372116985
 31
0.0
 11
-59.05579687978866
 21
256.0004107053137
 31
0.0
  0
SPLINE
  5
318
330
1F
100
AcDbEntity
  8
0
  6
Continuous
 62
     7
100
AcDbSpline
210
0.0
220
0.0
230
1.0
 70
     8
 71
     3
 72
     9
 73
     5
 74
     3
 42
0.000000001
 43
0.0000000001
 44
0.00000001
 40
0.0
 40
0.0
 40
0.0
 40
0.0
 40
0.1569755017681674
 40
0.3184905039163456
 40
0.3184905039163456
 40
0.3184905039163456
 40
0.3184905039163456
 10
-59.25746317090295
 20
255.7393017678437
 30
0.0
 10
-59.23835606062341
 20
255.788113988918
 30
0.0
 10
-59.19958927239651
 20
255.8871500003864
 30
0.0
 10
-59.14537733036706
 20
255.9786566312832
 30
0.0
 10
-59.11788500427133
 20
256.0250620719997
 30
0.0
 11
-59.25746317090295
 21
255.7393017678437
 31
0.0
 11
-59.19638982948516
 21
255.8839093585601
 31
0.0
 11
-59.11788500427133
 21
256.0250620719997
 31
0.0
  0
SPLINE
  5
319
330
1F
100
AcDbEntity
  8
0
  6
Continuous
 62
     7
100
AcDbSpline
210
0.0
220
0.0
230
1.0
 70
     8
 71
     3
 72
     9
 73
     5
 74
     3
 42
0.000000001
 43
0.0000000001
 44
0.00000001
 40
0.0
 40
0.0
 40
0.0
 40
0.0
 40
0.1447559754980997
 40
0.2893754672790862
 40
0.2893754672790862
 40
0.2893754672790862
 40
0.2893754672790862
 10
-59.32329538739396
 20
255.4575353572818
 30
0.0
 10
-59.31316071147689
 20
255.5047154306693
 30
0.0
 10
-59.29290089566034
 20
255.5990310891009
 30
0.0
 10
-59.26927203745656
 20
255.6925595806979
 30
0.0
 10
-59.25746317090295
 20
255.7393017678437
 30
0.0
 11
-59.32329538739396
 21
255.4575353572818
 31
0.0
 11
-59.29204829458418
 21
255.5988785978982
 31
0.0
 11
-59.25746317090295
 21
255.7393017678437
 31
0.0
  0
SPLINE
  5
31A
330
1F
100
AcDbEntity
  8
0
  6
Continuous
 62
     7
100
AcDbSpline
210
0.0
220
0.0
230
1.0
 70
     8
 71
     3
 72
     9
 73
     5
 74
     3
 42
0.000000001
 43
0.0000000001
 44
0.00000001
 40
0.0
 40
0.0
 40
0.0
 40
0.0
 40
0.1566790244633184
 40
0.3123228330351994
 40
0.3123228330351994
 40
0.3123228330351994
 40
0.3123228330351994
 10
-59.05579687978866
 20
256.0004107053137
 30
0.0
 10
-59.03427802229158
 20
256.048004980243
 30
0.0
 10
-58.99138246944794
 20
256.1428790548161
 30
0.0
 10
-58.94449931133911
 20
256.2358471481803
 30
0.0
 10
-58.92113542207915
 20
256.2821771158747
 30
0.0
 11
-59.05579687978866
 21
256.0004107053137
 31
0.0
 11
-58.99023677729086
 21
256.1427138665983
 31
0.0
 11
-58.92113542207915
 21
256.2821771158747
 31
0.0
  0
SPLINE
  5
31B
330
1F
100
AcDbEntity
  8
0
  6
Continuous
 62
     7
100
AcDbSpline
210
0.0
220
0.0
230
1.0
 70
     8
 71
     3
 72
     9
 73
     5
 74
     3
 42
0.000000001
 43
0.0000000001
 44
0.00000001
 40
0.0
 40
0.0
 40
0.0
 40
0.0
 40
0.0799892068545167
 40
0.165048220409162
 40
0.165048220409162
 40
0.165048220409162
 40
0.165048220409162
 10
-58.60163291106926
 20
256.5679374200318
 30
0.0
 10
-58.57531757364307
 20
256.5636390689654
 30
0.0
 10
-58.52101899976489
 20
256.5547699522438
 30
0.0
 10
-58.46652512394689
 20
256.547191607823
 30
0.0
 10
-58.43844123695408
 20
256.5432860533448
 30
0.0
 11
-58.60163291106926
 21
256.5679374200318
 31
0.0
 11
-58.52264102530664
 21
256.55534554926
 31
0.0
 11
-58.43844123695408
 21
256.5432860533448
 31
0.0
  0
SPLINE
  5
31C
330
1F
100
AcDbEntity
  8
0
  6
Continuous
 62
     7
100
AcDbSpline
210
0.0
220
0.0
230
1.0
 70
     8
 71
     3
 72
    13
 73
     9
 74
     7
 42
0.000000001
 43
0.0000000001
 44
0.00000001
 40
0.0
 40
0.0
 40
0.0
 40
0.0
 40
0.7310685737935304
 40
1.437048988014873
 40
2.096337746963798
 40
2.694672033592765
 40
3.229656872548151
 40
3.715378363306638
 40
3.715378363306638
 40
3.715378363306638
 40
3.715378363306638
 10
-56.4679189698287
 20
256.3201169582588
 30
0.0
 10
-56.71188859362183
 20
256.3093828317581
 30
0.0
 10
-57.1914555080718
 20
256.288282930431
 30
0.0
 10
-57.87387716055952
 20
256.119263546025
 30
0.0
 10
-58.47914193908322
 20
255.8589955628096
 30
0.0
 10
-58.96724998060519
 20
255.5097906979707
 30
0.0
 10
-59.33142857968262
 20
255.0930186608063
 30
0.0
 10
-59.42955206120883
 20
254.7637054746486
 30
0.0
 10
-59.47624588074405
 20
254.6069958612887
 30
0.0
 11
-56.4679189698287
 21
256.3201169582588
 31
0.0
 11
-57.19678330435739
 21
256.2633892446498
 31
0.0
 11
-57.88276531435116
 21
256.0965449282253
 31
0.0
 11
-58.4855046927994
 21
255.8293990681775
 31
0.0
 11
-58.96954054625576
 21
255.4776701740604
 31
0.0
 11
-59.30639323458686
 21
255.0620512967224
 31
0.0
 11
-59.47624588074405
 21
254.6069958612887
 31
0.0
  0
SPLINE
  5
31D
330
1F
100
AcDbEntity
  8
0
  6
Continuous
 62
     7
100
AcDbSpline
210
0.0
220
0.0
230
1.0
 70
     8
 71
     3
 72
     9
 73
     5
 74
     3
 42
0.000000001
 43
0.0000000001
 44
0.00000001
 40
0.0
 40
0.0
 40
0.0
 40
0.0
 40
0.008142143877873
 40
0.0162713110389596
 40
0.0162713110389596
 40
0.0162713110389596
 40
0.0162713110389596
 10
-43.70075856211474
 20
255.4737375872267
 30
0.0
 10
-43.70040524826832
 20
255.4710322566473
 30
0.0
 10
-43.69969920351492
 20
255.4656259064041
 30
0.0
 10
-43.70048600631691
 20
255.4602307723902
 30
0.0
 10
-43.70087910387611
 20
255.4575353572818
 30
0.0
 11
-43.70075856211474
 21
255.4737375872267
 31
0.0
 11
-43.70007243784456
 21
255.4656244031813
 31
0.0
 11
-43.70087910387611
 21
255.4575353572818
 31
0.0
  0
SPLINE
  5
31E
330
1F
100
AcDbEntity
  8
0
  6
Continuous
 62
     7
100
AcDbSpline
210
0.0
220
0.0
230
1.0
 70
     8
 71
     3
 72
     9
 73
     5
 74
     3
 42
0.000000001
 43
0.0000000001
 44
0.00000001
 40
0.0
 40
0.0
 40
0.0
 40
0.0
 40
0.1447559754981058
 40
0.2893754672790821
 40
0.2893754672790821
 40
0.2893754672790821
 40
0.2893754672790821
 10
-43.70087910387611
 20
255.4575353572818
 30
0.0
 10
-43.71101377979319
 20
255.5047154306693
 30
0.0
 10
-43.7312735956098
 20
255.5990310891008
 30
0.0
 10
-43.75490245381353
 20
255.6925595806978
 30
0.0
 10
-43.76671132036711
 20
255.7393017678437
 30
0.0
 11
-43.70087910387611
 21
255.4575353572818
 31
0.0
 11
-43.73212619668593
 21
255.5988785978982
 31
0.0
 11
-43.76671132036711
 21
255.7393017678437
 31
0.0
  0
SPLINE
  5
31F
330
1F
100
AcDbEntity
  8
0
  6
Continuous
 62
     7
100
AcDbSpline
210
0.0
220
0.0
230
1.0
 70
     8
 71
     3
 72
     9
 73
     5
 74
     3
 42
0.000000001
 43
0.0000000001
 44
0.00000001
 40
0.0
 40
0.0
 40
0.0
 40
0.0
 40
0.1925540508111867
 40
0.382009267386232
 40
0.382009267386232
 40
0.382009267386232
 40
0.382009267386232
 10
-44.58573325431598
 20
256.5432860533448
 30
0.0
 10
-44.62743500350921
 20
256.5921055004388
 30
0.0
 10
-44.71016739713862
 20
256.6889587142397
 30
0.0
 10
-44.79932180385758
 20
256.7799338800721
 30
0.0
 10
-44.84353740708968
 20
256.8250524639068
 30
0.0
 11
-44.58573325431598
 21
256.5432860533448
 31
0.0
 11
-44.71247016593323
 21
256.6882509380765
 31
0.0
 11
-44.84353740708968
 21
256.8250524639068
 31
0.0
  0
SPLINE
  5
320
330
1F
100
AcDbEntity
  8
0
  6
Continuous
 62
     7
100
AcDbSpline
210
0.0
220
0.0
230
1.0
 70
     8
 71
     3
 72
     9
 73
     5
 74
     3
 42
0.000000001
 43
0.0000000001
 44
0.00000001
 40
0.0
 40
0.0
 40
0.0
 40
0.0
 40
0.2100483570411572
 40
0.4291422466109335
 40
0.4291422466109335
 40
0.4291422466109335
 40
0.4291422466109335
 10
-44.10303906919091
 20
256.2821771158747
 30
0.0
 10
-44.15178637174429
 20
256.3325721522007
 30
0.0
 10
-44.25138024672262
 20
256.435532424582
 30
0.0
 10
-44.36469166556799
 20
256.5231865638108
 30
0.0
 10
-44.4225415802008
 20
256.5679374200318
 30
0.0
 11
-44.10303906919091
 21
256.2821771158747
 31
0.0
 11
-44.2525673228394
 21
256.4296952973227
 31
0.0
 11
-44.4225415802008
 21
256.5679374200318
 31
0.0
  0
SPLINE
  5
321
330
1F
100
AcDbEntity
  8
0
  6
Continuous
 62
     7
100
AcDbSpline
210
0.0
220
0.0
230
1.0
 70
     8
 71
     3
 72
     9
 73
     5
 74
     3
 42
0.000000001
 43
0.0000000001
 44
0.00000001
 40
0.0
 40
0.0
 40
0.0
 40
0.0
 40
0.1566790244633719
 40
0.3123228330351993
 40
0.3123228330351993
 40
0.3123228330351993
 40
0.3123228330351993
 10
-43.9683776114814
 20
256.0004107053137
 30
0.0
 10
-43.98989646897853
 20
256.048004980243
 30
0.0
 10
-44.03279202182227
 20
256.142879054816
 30
0.0
 10
-44.07967517993102
 20
256.2358471481804
 30
0.0
 10
-44.10303906919091
 20
256.2821771158747
 30
0.0
 11
-43.9683776114814
 21
256.0004107053137
 31
0.0
 11
-44.03393771397933
 21
256.1427138665983
 31
0.0
 11
-44.10303906919091
 21
256.2821771158747
 31
0.0
  0
SPLINE
  5
322
330
1F
100
AcDbEntity
  8
0
  6
Continuous
 62
     7
100
AcDbSpline
210
0.0
220
0.0
230
1.0
 70
     8
 71
     3
 72
     9
 73
     5
 74
     3
 42
0.000000001
 43
0.0000000001
 44
0.00000001
 40
0.0
 40
0.0
 40
0.0
 40
0.0
 40
0.156975501768184
 40
0.3184905039163415
 40
0.3184905039163415
 40
0.3184905039163415
 40
0.3184905039163415
 10
-43.76671132036711
 20
255.7393017678437
 30
0.0
 10
-43.78581843064667
 20
255.7881139889179
 30
0.0
 10
-43.8245852188736
 20
255.8871500003863
 30
0.0
 10
-43.87879716090301
 20
255.9786566312831
 30
0.0
 10
-43.90628948699873
 20
256.0250620719997
 30
0.0
 11
-43.76671132036711
 21
255.7393017678437
 31
0.0
 11
-43.82778466178495
 21
255.8839093585601
 31
0.0
 11
-43.90628948699873
 21
256.0250620719997
 31
0.0
  0
SPLINE
  5
323
330
1F
100
AcDbEntity
  8
0
  6
Continuous
 62
     7
100
AcDbSpline
210
0.0
220
0.0
230
1.0
 70
     8
 71
     3
 72
    11
 73
     7
 74
     5
 42
0.000000001
 43
0.0000000001
 44
0.00000001
 40
0.0
 40
0.0
 40
0.0
 40
0.0
 40
0.4569323836676723
 40
0.936507750165912
 40
1.432069492035779
 40
1.93588653123986
 40
1.93588653123986
 40
1.93588653123986
 40
1.93588653123986
 10
-44.84353740708968
 20
256.8250524639068
 30
0.0
 10
-44.98250009272595
 20
256.8879487987357
 30
0.0
 10
-45.26731167398622
 20
257.0168582407892
 30
0.0
 10
-45.72976688398491
 20
257.1415983727406
 30
0.0
 10
-46.21694010710117
 20
257.2242888939459
 30
0.0
 10
-46.55029194961511
 20
257.2343155548178
 30
0.0
 10
-46.71834468593363
 20
257.2393702900008
 30
0.0
 11
-44.84353740708968
 21
256.8250524639068
 31
0.0
 11
-45.2646183447238
 21
257.0024730035809
 31
0.0
 11
-45.72613183346607
 21
257.132848741863
 31
0.0
 11
-46.21524184965905
 21
257.2125534040803
 31
0.0
 11
-46.71834468593363
 21
257.2393702900008
 31
0.0
  0
SPLINE
  5
324
330
1F
100
AcDbEntity
  8
0
  6
Continuous
 62
     7
100
AcDbSpline
210
0.0
220
0.0
230
1.0
 70
     8
 71
     3
 72
     9
 73
     5
 74
     3
 42
0.000000001
 43
0.0000000001
 44
0.00000001
 40
0.0
 40
0.0
 40
0.0
 40
0.0
 40
0.0316381773673799
 40
0.0668226219399878
 40
0.0668226219399878
 40
0.0668226219399878
 40
0.0668226219399878
 10
-43.90628948699873
 20
256.0250620719997
 30
0.0
 10
-43.91594327481991
 20
256.020807556326
 30
0.0
 10
-43.93633293409356
 20
256.011821662381
 30
0.0
 10
-43.95732470634515
 20
256.0043465848778
 30
0.0
 10
-43.9683776114814
 20
256.0004107053137
 30
0.0
 11
-43.90628948699873
 21
256.0250620719997
 31
0.0
 11
-43.93538582919197
 21
256.0126372116985
 31
0.0
 11
-43.9683776114814
 21
256.0004107053137
 31
0.0
  0
SPLINE
  5
325
330
1F
100
AcDbEntity
  8
0
  6
Continuous
 62
     7
100
AcDbSpline
210
0.0
220
0.0
230
1.0
 70
     8
 71
     3
 72
     9
 73
     5
 74
     3
 42
0.000000001
 43
0.0000000001
 44
0.00000001
 40
0.0
 40
0.0
 40
0.0
 40
0.0
 40
0.0799892068545167
 40
0.165048220409162
 40
0.165048220409162
 40
0.165048220409162
 40
0.165048220409162
 10
-44.4225415802008
 20
256.5679374200318
 30
0.0
 10
-44.448856917627
 20
256.5636390689654
 30
0.0
 10
-44.50315549150517
 20
256.5547699522438
 30
0.0
 10
-44.55764936732319
 20
256.547191607823
 30
0.0
 10
-44.58573325431598
 20
256.5432860533448
 30
0.0
 11
-44.4225415802008
 21
256.5679374200318
 31
0.0
 11
-44.50153346596342
 21
256.55534554926
 31
0.0
 11
-44.58573325431598
 21
256.5432860533448
 31
0.0
  0
SPLINE
  5
326
330
1F
100
AcDbEntity
  8
0
  6
Continuous
 62
     7
100
AcDbSpline
210
0.0
220
0.0
230
1.0
 70
     8
 71
     3
 72
    13
 73
     9
 74
     7
 42
0.000000001
 43
0.0000000001
 44
0.00000001
 40
0.0
 40
0.0
 40
0.0
 40
0.0
 40
0.7310685737935233
 40
1.437048988014873
 40
2.096337746963792
 40
2.694672033592764
 40
3.22965687254815
 40
3.715378363306637
 40
3.715378363306637
 40
3.715378363306637
 40
3.715378363306637
 10
-46.55625552144136
 20
256.3201169582588
 30
0.0
 10
-46.31228589764823
 20
256.309382831758
 30
0.0
 10
-45.83271898319827
 20
256.2882829304311
 30
0.0
 10
-45.15029733071053
 20
256.119263546025
 30
0.0
 10
-44.54503255218686
 20
255.8589955628096
 30
0.0
 10
-44.05692451066488
 20
255.5097906979708
 30
0.0
 10
-43.69274591158746
 20
255.0930186608063
 30
0.0
 10
-43.59462243006124
 20
254.7637054746486
 30
0.0
 10
-43.54792861052601
 20
254.6069958612887
 30
0.0
 11
-46.55625552144136
 21
256.3201169582588
 31
0.0
 11
-45.82739118691268
 21
256.2633892446498
 31
0.0
 11
-45.1414091769189
 21
256.0965449282253
 31
0.0
 11
-44.53866979847067
 21
255.8293990681775
 31
0.0
 11
-44.0546339450143
 21
255.4776701740604
 31
0.0
 11
-43.7177812566832
 21
255.0620512967224
 31
0.0
 11
-43.54792861052601
 21
254.6069958612887
 31
0.0
  0
SPLINE
  5
327
330
1F
100
AcDbEntity
  8
0
  6
Continuous
 62
     7
100
AcDbSpline
210
0.0
220
0.0
230
1.0
 70
     8
 71
     3
 72
    11
 73
     7
 74
     5
 42
0.000000001
 43
0.0000000001
 44
0.00000001
 40
0.0
 40
0.0
 40
0.0
 40
0.0
 40
0.6678027373297488
 40
1.20268942219293
 40
1.707106273314129
 40
2.224252533075217
 40
2.224252533075217
 40
2.224252533075217
 40
2.224252533075217
 10
-66.73122489704554
 20
244.5440348668338
 30
0.0
 10
-66.58828580994499
 20
244.715340758714
 30
0.0
 10
-66.33085749492471
 20
245.0238566844982
 30
0.0
 10
-65.89471631686756
 20
245.3915196998923
 30
0.0
 10
-65.50090430907315
 20
245.7287920162431
 30
0.0
 10
-65.2427651283621
 20
245.950935510803
 30
0.0
 10
-65.11208724563505
 20
246.0633913001397
 30
0.0
 11
-66.73122489704554
 21
244.5440348668338
 31
0.0
 11
-66.28704090983285
 21
245.0426941517469
 31
0.0
 11
-65.88761063706147
 21
245.3984457856932
 31
0.0
 11
-65.50420703645686
 21
245.7262232082798
 31
0.0
 11
-65.11208724563505
 21
246.0633913001397
 31
0.0
  0
SPLINE
  5
328
330
1F
100
AcDbEntity
  8
0
  6
Continuous
 62
     7
100
AcDbSpline
210
0.0
220
0.0
230
1.0
 70
     8
 71
     3
 72
    11
 73
     7
 74
     5
 42
0.000000001
 43
0.0000000001
 44
0.00000001
 40
0.0
 40
0.0
 40
0.0
 40
0.0
 40
0.6550836221909192
 40
1.391125113505729
 40
2.157223215802691
 40
2.936478008610377
 40
2.936478008610377
 40
2.936478008610377
 40
2.936478008610377
 10
-66.73122489704554
 20
244.5440348668338
 30
0.0
 10
-66.87144923875546
 20
244.3762217397652
 30
0.0
 10
-67.1692273981703
 20
244.0198564549279
 30
0.0
 10
-67.5248242062583
 20
243.3898825353112
 30
0.0
 10
-67.76686499065181
 20
242.6602990929732
 30
0.0
 10
-67.79692785007947
 20
242.1441876515337
 30
0.0
 10
-67.81208724563498
 20
241.88393491767
 30
0.0
 11
-66.73122489704554
 21
244.5440348668338
 31
0.0
 11
-67.13671589143416
 21
244.0295335484188
 31
0.0
 11
-67.49868227399747
 21
243.3886455571769
 31
0.0
 11
-67.7325644787933
 21
242.6591214523425
 31
0.0
 11
-67.81208724563498
 21
241.88393491767
 31
0.0
  0
SPLINE
  5
329
330
1F
100
AcDbEntity
  8
0
  6
Continuous
 62
     7
100
AcDbSpline
210
0.0
220
0.0
230
1.0
 70
     8
 71
     3
 72
    11
 73
     7
 74
     5
 42
0.000000001
 43
0.0000000001
 44
0.00000001
 40
0.0
 40
0.0
 40
0.0
 40
0.0
 40
0.4200838446622242
 40
0.8643237627951944
 40
1.285708269886493
 40
1.728646439332242
 40
1.728646439332242
 40
1.728646439332242
 40
1.728646439332242
 10
-138.162087245635
 20
209.0988369310303
 30
0.0
 10
-138.0244175346298
 20
209.1244275586665
 30
0.0
 10
-137.741161691013
 20
209.1770803363092
 30
0.0
 10
-137.319713514432
 20
209.2548830420726
 30
0.0
 10
-136.8907208248759
 20
209.3337808623921
 30
0.0
 10
-136.6073208267645
 20
209.3856500655961
 30
0.0
 10
-136.462087245636
 20
209.4122313923433
 30
0.0
 11
-138.162087245635
 21
209.0988369310303
 31
0.0
 11
-137.7490628083973
 21
209.1755262444689
 31
0.0
 11
-137.312212404702
 21
209.2562159567185
 31
0.0
 11
-136.8977762418864
 21
209.3324233695697
 31
0.0
 11
-136.462087245636
 21
209.4122313923433
 31
0.0
  0
SPLINE
  5
32A
330
1F
100
AcDbEntity
  8
0
  6
Continuous
 62
     7
100
AcDbSpline
210
0.0
220
0.0
230
1.0
 70
     8
 71
     3
 72
    11
 73
     7
 74
     5
 42
0.000000001
 43
0.0000000001
 44
0.00000001
 40
0.0
 40
0.0
 40
0.0
 40
0.0
 40
0.4429293085455467
 40
0.8643236247857083
 40
1.308555538977687
 40
1.728646439337471
 40
1.728646439337471
 40
1.728646439337471
 40
1.728646439337471
 10
-136.4620872456351
 20
206.1335121301902
 30
0.0
 10
-136.6073179214686
 20
206.1600929247588
 30
0.0
 10
-136.8907182306489
 20
206.2119621840415
 30
0.0
 10
-137.3197086076288
 20
206.2908595760926
 30
0.0
 10
-137.741159689138
 20
206.3686628160314
 30
0.0
 10
-138.0244152222325
 20
206.4213155346461
 30
0.0
 10
-138.1620872456426
 20
206.4469065914866
 30
0.0
 11
-136.4620872456351
 21
206.1335121301902
 31
0.0
 11
-136.8977675265351
 21
206.2133185535172
 31
0.0
 11
-137.3122133372522
 21
206.289527737641
 31
0.0
 11
-137.7490558706559
 21
206.3702159933231
 31
0.0
 11
-138.1620872456426
 21
206.4469065914866
 31
0.0
  0
SPLINE
  5
32B
330
1F
100
AcDbEntity
  8
0
  6
Continuous
 62
     7
100
AcDbSpline
210
0.0
220
0.0
230
1.0
 70
     8
 71
     3
 72
    11
 73
     7
 74
     5
 42
0.000000001
 43
0.0000000001
 44
0.00000001
 40
0.0
 40
0.0
 40
0.0
 40
0.0
 40
0.1177792148477309
 40
0.2373838022954236
 40
0.5446342920799743
 40
0.8563530858570718
 40
0.8563530858570718
 40
0.8563530858570718
 40
0.8563530858570718
 10
-65.59449173755615
 20
118.4370313954163
 30
0.0
 10
-65.62860059027017
 20
118.4175324441286
 30
0.0
 10
-65.6973469304634
 20
118.3782323545651
 30
0.0
 10
-65.86352571765592
 20
118.3048205011216
 30
0.0
 10
-66.10138118310692
 20
118.2324522931967
 30
0.0
 10
-66.30802131633072
 20
118.2214396696971
 30
0.0
 10
-66.412087245635
 20
118.2158936161343
 30
0.0
 11
-65.59449173755615
 21
118.4370313954163
 31
0.0
 11
-65.6977252367756
 21
118.3803322917167
 31
0.0
 11
-65.80683848414228
 21
118.3313470198165
 31
0.0
 11
-66.10174165417709
 21
118.2451206609598
 31
0.0
 11
-66.412087245635
 21
118.2158936161343
 31
0.0
  0
SPLINE
  5
32C
330
1F
100
AcDbEntity
  8
1
  6
Continuous
 62
     7
100
AcDbSpline
210
0.0
220
0.0
230
1.0
 70
    11
 71
     3
 72
    59
 73
    55
 74
    53
 42
0.000000001
 43
0.0000000001
 44
0.00000001
 40
0.0
 40
0.0
 40
0.0
 40
0.0
 40
4.521243181554991
 40
9.098476554095479
 40
14.43238708931526
 40
19.74376843322827
 40
23.95226839551402
 40
28.26905048240783
 40
30.26587644891765
 40
32.0332034274104
 40
33.60691268975699
 40
35.35031147323909
 40
37.54361171392254
 40
39.67021859646273
 40
45.90263522563385
 40
52.17868687688385
 40
54.46046649917672
 40
56.74739176398256
 40
61.06374977907713
 40
65.36261225153972
 40
69.1754898561882
 40
73.00010995454961
 40
76.82706257960399
 40
80.7787806461621
 40
82.46242424532494
 40
83.9511081982637
 40
85.28232767367935
 40
86.77841779857054
 40
90.04310557461021
 40
93.05167384419698
 40
97.1852156366908
 40
101.4239750042978
 40
106.0797588986049
 40
110.5732002790335
 40
114.1046552416126
 40
117.6340826959059
 40
119.1866292892841
 40
120.6159328658299
 40
121.6027528341179
 40
122.6656235096297
 40
125.3718198072451
 40
127.9230902631925
 40
131.4472781222021
 40
135.180947360673
 40
140.3202795094383
 40
145.3947289178239
 40
152.086161099922
 40
158.7409387155142
 40
163.1061574032269
 40
167.6275524979305
 40
169.2335283776753
 40
170.6965429504412
 40
174.1852105668044
 40
177.1565059881231
 40
177.1565059881231
 40
177.1565059881231
 40
177.1565059881231
 10
-146.5874289265677
 20
139.5029253591592
 30
0.0
 10
-145.0964739732483
 20
139.1464342040387
 30
0.0
 10
-142.0961003739928
 20
138.4290371665884
 30
0.0
 10
-137.3541813911147
 20
139.807425657378
 30
0.0
 10
-132.2640685996679
 20
139.5889258855252
 30
0.0
 10
-127.3003837082914
 20
139.3113300037309
 30
0.0
 10
-122.7438281069205
 20
140.0435903450492
 30
0.0
 10
-119.1576447961631
 20
139.8512853588587
 30
0.0
 10
-116.6477479675034
 20
138.8659057966559
 30
0.0
 10
-115.225493462322
 20
137.5738169640269
 30
0.0
 10
-115.1661521600828
 20
135.7809827246631
 30
0.0
 10
-115.4823035135399
 20
133.9920384390573
 30
0.0
 10
-115.4814630361917
 20
131.9517252646803
 30
0.0
 10
-115.0560839931111
 20
128.4624582574629
 30
0.0
 10
-114.3426769845215
 20
123.6355093625754
 30
0.0
 10
-113.7788302499726
 20
118.7335694342726
 30
0.0
 10
-113.6118494820707
 20
115.1216276431607
 30
0.0
 10
-113.7907909408177
 20
112.1505968613706
 30
0.0
 10
-114.8543081216178
 20
108.6594812956608
 30
0.0
 10
-116.0621844206396
 20
104.6702251184443
 30
0.0
 10
-116.0156741470262
 20
100.6441548139727
 30
0.0
 10
-115.4094058643753
 20
96.87561696637704
 30
0.0
 10
-114.8113214450458
 20
93.04718273039701
 30
0.0
 10
-115.1223094373158
 20
89.84264622982226
 30
0.0
 10
-115.9097856750357
 20
87.6092885054017
 30
0.0
 10
-116.927661863267
 20
86.35742757561923
 30
0.0
 10
-118.4469754373022
 20
86.19711501836167
 30
0.0
 10
-120.4323454368135
 20
86.59813395758121
 30
0.0
 10
-122.8668195060525
 20
87.46012029526892
 30
0.0
 10
-126.3109224153312
 20
88.32539694886593
 30
0.0
 10
-130.022429994544
 20
87.22380900401052
 30
0.0
 10
-134.3260936160714
 20
86.06521274392371
 30
0.0
 10
-138.621329430544
 20
87.52983244567312
 30
0.0
 10
-142.925197701975
 20
88.64930600891815
 30
0.0
 10
-146.4534967514844
 20
86.89701389030877
 30
0.0
 10
-149.3891132743928
 20
86.1681784402376
 30
0.0
 10
-151.4646401914454
 20
86.95078275330286
 30
0.0
 10
-152.4854985620175
 20
87.93897167310706
 30
0.0
 10
-152.6100235595752
 20
89.14010064111078
 30
0.0
 10
-152.3312854799242
 20
90.70187884289739
 30
0.0
 10
-151.6337558533625
 20
92.68849081664963
 30
0.0
 10
-150.7574178321026
 20
95.52417283490368
 30
0.0
 10
-151.3169990078306
 20
98.84454108421937
 30
0.0
 10
-152.6456240843301
 20
102.736459698867
 30
0.0
 10
-153.4045330683524
 20
107.3610594346461
 30
0.0
 10
-153.5034264122904
 20
113.001678560571
 30
0.0
 10
-153.0741916080013
 20
119.1321161289318
 30
0.0
 10
-152.4572550108728
 20
125.0037734192373
 30
0.0
 10
-152.049651147307
 20
130.166834861371
 30
0.0
 10
-152.2079571211985
 20
133.6894325458042
 30
0.0
 10
-152.6868137922212
 20
136.1640097991532
 30
0.0
 10
-152.4918775582356
 20
138.4418949322312
 30
0.0
 10
-149.6901569294764
 20
140.0718216753936
 30
0.0
 10
-147.564935963591
 20
139.6821547789873
 30
0.0
 10
-146.5874289265677
 20
139.5029253591592
 30
0.0
 11
-146.5874289265677
 21
139.5029253591592
 31
0.0
 11
-142.1172727612853
 21
138.8251762756711
 31
0.0
 11
-137.5904944902146
 21
139.5029253591591
 31
0.0
 11
-132.2570985726914
 21
139.5770172244626
 31
0.0
 11
-126.9462340303038
 21
139.5029253591592
 31
0.0
 11
-122.7555672269141
 21
139.8899443217961
 31
0.0
 11
-118.4561691396607
 21
139.5029253591592
 31
0.0
 11
-116.6232325180643
 21
138.7106771128568
 31
0.0
 11
-115.412087245635
 21
137.4235983348334
 31
0.0
 11
-115.219681533739
 21
135.8616953648518
 31
0.0
 11
-115.4120872456351
 21
134.1289462877183
 31
0.0
 11
-115.4367181283591
 21
131.9357843530222
 31
0.0
 11
-115.217031412439
 21
129.8205551491823
 31
0.0
 11
-114.3777936190876
 21
123.6449015810494
 31
0.0
 11
-113.7311549617172
 21
117.4022512792864
 31
0.0
 11
-113.6524267923801
 21
115.1218302389089
 31
0.0
 11
-113.8112316496533
 21
112.8404253678964
 31
0.0
 11
-114.8552319163827
 21
108.6522264754394
 31
0.0
 11
-115.8791228434392
 21
104.4770778636804
 31
0.0
 11
-115.9224747931654
 21
100.6644467200495
 31
0.0
 11
-115.412087245635
 21
96.8740346780303
 31
0.0
 11
-114.9766789279922
 21
93.07193183993083
 31
0.0
 11
-115.4120872456351
 21
89.14427410595243
 31
0.0
 11
-116.0345229504054
 21
87.5799117557466
 31
0.0
 11
-117.0622778889582
 21
86.50292535915912
 31
0.0
 11
-118.3725649901679
 21
86.26778071333571
 31
0.0
 11
-119.8500603903633
 21
86.50292535915918
 31
0.0
 11
-122.9769817439351
 21
87.4413011498333
 31
0.0
 11
-125.9324949388837
 21
88.00381762810437
 31
0.0
 11
-129.9967273389494
 21
87.2500386472625
 31
0.0
 11
-134.1691250566718
 21
86.50292535915918
 31
0.0
 11
-138.7174234192998
 21
87.4975638251986
 31
0.0
 11
-143.1660594930249
 21
88.13053501453238
 31
0.0
 11
-146.51673321154
 21
87.01511590599551
 31
0.0
 11
-150.0087983601103
 21
86.5029253591592
 31
0.0
 11
-151.4541871931835
 21
87.06971636672009
 31
0.0
 11
-152.4120872456351
 21
88.13053501453246
 31
0.0
 11
-152.5624505806205
 21
89.10583215761433
 31
0.0
 11
-152.4120872456351
 21
90.15801319737247
 31
0.0
 11
-151.6313826549331
 21
92.74915170084961
 31
0.0
 11
-151.0225374515304
 21
95.22670865447233
 31
0.0
 11
-151.3908235106294
 21
98.73160029965752
 31
0.0
 11
-152.4120872456351
 21
102.3228822944133
 31
0.0
 11
-153.2824822459951
 21
107.3879733576488
 31
0.0
 11
-153.4301677936532
 21
112.4602732086143
 31
0.0
 11
-153.0346525185876
 21
119.1400061611722
 31
0.0
 11
-152.412087245635
 21
125.7655987835025
 31
0.0
 11
-152.1423356272632
 21
130.1224747579283
 31
0.0
 11
-152.412087245635
 21
134.6358158334284
 31
0.0
 11
-152.6178327748257
 21
136.2285579038698
 31
0.0
 11
-152.4120872456351
 21
137.6770331076884
 31
0.0
 11
-149.5536194417412
 21
139.677023990621
 31
0.0
 11
-146.5874289265677
 21
139.5029253591592
 31
0.0
  0
ARC
  5
32D
330
1F
100
AcDbEntity
  8
1
  6
Continuous
 62
     7
100
AcDbCircle
 10
-65.11208724563505
 20
117.4029253591594
 30
0.0
 40
1.5
100
AcDbArc
 50
180.0000000000114
 51
270.0
  0
ARC
  5
32E
330
1F
100
AcDbEntity
  8
1
  6
Continuous
 62
     7
100
AcDbCircle
 10
-37.91208724563501
 20
117.4029253591594
 30
0.0
 40
1.500000000000298
100
AcDbArc
 50
270.0
 51
359.9999999999886
  0
ARC
  5
32F
330
1F
100
AcDbEntity
  8
1
  6
Continuous
 62
     2
100
AcDbCircle
 10
-50.71208724563508
 20
124.1761753111089
 30
0.0
 40
0.0999999999998948
100
AcDbArc
 50
180.0
 51
299.9816393688927
  0
ARC
  5
330
330
1F
100
AcDbEntity
  8
1
  6
Continuous
 62
     2
100
AcDbCircle
 10
-50.71208724563508
 20
125.6296754072094
 30
0.0
 40
0.1000000000000044
100
AcDbArc
 50
60.01836063107472
 51
180.0
  0
ARC
  5
331
330
1F
100
AcDbEntity
  8
1
  6
Continuous
 62
     2
100
AcDbCircle
 10
-49.01214278576708
 20
124.9029253591591
 30
0.0
 40
0.0500000000000227
100
AcDbArc
 50
299.9816393689823
 51
60.01836063108286
  0
ARC
  5
332
330
1F
100
AcDbEntity
  8
1
  6
Continuous
 62
     2
100
AcDbCircle
 10
-54.01203170550309
 20
124.9029253591591
 30
0.0
 40
0.0500000000000643
100
AcDbArc
 50
119.9816393688043
 51
240.0183606311306
  0
ARC
  5
333
330
1F
100
AcDbEntity
  8
1
  6
Continuous
 62
     2
100
AcDbCircle
 10
-52.21208724563508
 20
124.233931703569
 30
0.0
 40
0.1999999999999247
100
AcDbArc
 50
180.0
 51
240.0183606311649
  0
ARC
  5
334
330
1F
100
AcDbEntity
  8
1
  6
Continuous
 62
     2
100
AcDbCircle
 10
-51.51208724563503
 20
125.0029253591591
 30
0.0
 40
0.0500000000002319
100
AcDbArc
 50
209.9999999997036
 51
330.0000000000317
  0
ARC
  5
335
102
{ACAD_REACTORS
330
3D1
102
}
330
1F
100
AcDbEntity
  8
1
  6
Continuous
 62
     7
100
AcDbCircle
 10
-60.76208724563503
 20
141.8124353691552
 30
0.0
 40
6.000000000000074
100
AcDbArc
 50
119.9999999999996
 51
180.0
  0
ARC
  5
336
102
{ACAD_REACTORS
330
3D1
102
}
330
1F
100
AcDbEntity
  8
1
  6
Continuous
 62
     7
100
AcDbCircle
 10
-51.51208724563503
 20
147.1529253591591
 30
0.0
 40
6.000000000000148
100
AcDbArc
 50
60.00000000000082
 51
119.9999999999992
  0
ARC
  5
337
102
{ACAD_REACTORS
330
3D1
102
}
330
1F
100
AcDbEntity
  8
1
  6
Continuous
 62
     7
100
AcDbCircle
 10
-42.26208724563503
 20
141.8124353691552
 30
0.0
 40
6.0
100
AcDbArc
 50
0.0
 51
60.00000000000042
  0
ARC
  5
338
102
{ACAD_REACTORS
330
3D2
102
}
330
1F
100
AcDbEntity
  8
1
  6
Continuous
 62
     7
100
AcDbCircle
 10
-60.76208724563503
 20
121.9934153491631
 30
0.0
 40
6.0000000000006
100
AcDbArc
 50
216.3510244418893
 51
239.9999999999994
  0
ARC
  5
339
102
{ACAD_REACTORS
330
3D3
102
}
330
1F
100
AcDbEntity
  8
1
  6
Continuous
 62
     7
100
AcDbCircle
 10
-42.26208724563503
 20
121.9934153491631
 30
0.0
 40
5.999999999999889
100
AcDbArc
 50
300.0000000000006
 51
323.6489755581107
  0
ARC
  5
33A
330
1F
100
AcDbEntity
  8
0
  6
Continuous
 62
     2
100
AcDbCircle
 10
-56.51154368642534
 20
239.7632820071177
 30
0.0
 40
0.0999913502286662
100
AcDbArc
 50
119.9816393686388
 51
240.0183606313693
  0
ARC
  5
33B
330
1F
100
AcDbEntity
  8
0
  6
Continuous
 62
     2
100
AcDbCircle
 10
-49.91222564197193
 20
238.309907635448
 30
0.0
 40
0.1999827004578876
100
AcDbArc
 50
180.0
 51
299.9816393688887
  0
ARC
  5
33C
330
1F
100
AcDbEntity
  8
0
  6
Continuous
 62
     2
100
AcDbCircle
 10
-49.91222564197193
 20
241.2166563787872
 30
0.0
 40
0.1999827004580161
100
AcDbArc
 50
60.01836063113575
 51
180.0
  0
ARC
  5
33D
330
1F
100
AcDbEntity
  8
0
  6
Continuous
 62
     2
100
AcDbCircle
 10
-46.51263080484438
 20
239.7632820071177
 30
0.0
 40
0.0999913502289465
100
AcDbArc
 50
299.9816393688846
 51
60.01836063110726
  0
ARC
  5
33E
330
1F
100
AcDbEntity
  8
0
  6
Continuous
 62
     2
100
AcDbCircle
 10
-52.91196614883984
 20
238.4254104287767
 30
0.0
 40
0.3999654009157894
100
AcDbArc
 50
180.0
 51
240.0183606311236
  0
ARC
  5
33F
330
1F
100
AcDbEntity
  8
0
  6
Continuous
 62
     2
100
AcDbCircle
 10
-51.51208724563503
 20
239.9632647075754
 30
0.0
 40
0.0999913502283521
100
AcDbArc
 50
210.0000000001593
 51
330.0000000000524
  0
MTEXT
  5
341
330
1F
100
AcDbEntity
  8
Symbole_TC_020513_DIN_
 62
     7
100
AcDbMText
 10
-38.0
 20
97.30239925738599
 30
0.0
 40
3.49999994039535
 41
0.0
 71
     8
 72
     1
  1
Wiring Diagram
  7
CONVERTER_13
 73
     1
 44
1.0
  0
MTEXT
  5
342
330
1F
100
AcDbEntity
  8
1
 62
     7
100
AcDbMText
 10
-177.4
 20
7.49999999999989
 30
0.0
 40
3.0
 41
0.0
 71
     4
 72
     1
  1
T.Tedeschi
  7
CONVERTER_11
 73
     1
 44
1.32052821128451
  0
MTEXT
  5
343
330
1F
100
AcDbEntity
  8
1
 62
     7
100
AcDbMText
 10
-177.4
 20
12.49999999999989
 30
0.0
 40
3.0
 41
0.0
 71
     4
 72
     1
  1
20/10/10
  7
CONVERTER_11
 73
     1
 44
1.32052821128451
  0
MTEXT
  5
344
330
1F
100
AcDbEntity
  8
1
 62
     7
100
AcDbMText
 10
-40.32369931125726
 20
10.06063942075605
 30
0.0
 40
4.5
 41
0.0
 71
     5
 72
     1
  1
1:1
  7
CONVERTER_11
 73
     1
 44
1.32052821128451
  0
MTEXT
  5
345
330
1F
100
AcDbEntity
  8
1
 62
     7
100
AcDbMText
 10
-152.7236993112573
 20
12.5
 30
0.0
 40
4.5
 41
0.0
 71
     4
 72
     1
  1
CJZA 8 I\Pfemale-female connector RJ45 8P + CKAX 03 I
  7
CONVERTER_11
 73
     1
 44
0.90036014405762
  0
MTEXT
  5
347
330
1F
100
AcDbEntity
  8
1
 62
     4
100
AcDbMText
 10
-22.88999999999973
 20
90.60279147058418
 30
0.0
 40
2.0
 41
0.0
 71
     2
 72
     1
  1
1\P2\P3\P4\P5\P6\P7\P8\PVS
  7
CONVERTER_14
 73
     1
 44
1.32052821128451
  0
MTEXT
  5
348
330
1F
100
AcDbEntity
  8
1
 62
     4
100
AcDbMText
 10
-53.10749612914609
 20
90.60279147058418
 30
0.0
 40
2.0
 41
0.0
 71
     2
 72
     1
  1
 1\P 2\P 3\P 4\P 5\P 6\P 7\P 8\PVS
  7
CONVERTER_14
 73
     1
 44
1.32052821128451
  0
MTEXT
  5
349
330
1F
100
AcDbEntity
  8
Symbole_TC_020513_DIN_
 62
     7
100
AcDbMText
 10
-147.264495742912
 20
66.58358860743215
 30
0.0
 40
3.49999994039535
 41
0.0
 71
     1
 72
     1
  1
Panel cut out
  7
CONVERTER_13
 73
     1
 44
1.0
  0
DIMENSION
  5
355
330
1F
100
AcDbEntity
  8
1
100
AcDbDimension
  2
*D3
 10
-99.912087245635
 20
243.5728717612658
 30
0.0
 11
-99.912087245635
 21
231.5728717612658
 31
0.0
 70
    32
  1
<>
 71
     5
 42
-1.0
 53
0.00013888888889
  3
ME10_DIM_10
100
AcDbAlignedDimension
 13
-110.3620872456351
 23
219.5728717612658
 33
0.0
 14
-119.3620872456351
 24
243.5728717612658
 34
0.0
 50
90.0
100
AcDbRotatedDimension
  0
DIMENSION
  5
361
330
1F
100
AcDbEntity
  8
1
100
AcDbDimension
  2
*D4
 10
-99.912087245635
 20
196.5728717612658
 30
0.0
 11
-99.912087245635
 21
208.0728717612658
 31
0.0
 70
    32
  1
<>
 71
     5
 42
-1.0
 53
0.00013888888889
  3
ME10_DIM_11
100
AcDbAlignedDimension
 13
-110.3620872456351
 23
219.5728717612658
 33
0.0
 14
-121.062087245635
 24
196.5728717612658
 34
0.0
 50
90.0
100
AcDbRotatedDimension
  0
DIMENSION
  5
36D
330
1F
100
AcDbEntity
  8
1
100
AcDbDimension
  2
*D5
 10
-95.78069446758903
 20
128.0029253591592
 30
0.0
 11
-95.78069446758903
 21
113.0029253591592
 31
0.0
 70
    32
  1
<>
 71
     5
 42
-1.0
 53
0.00013888888889
  3
ME10_DIM_12
100
AcDbAlignedDimension
 13
-130.312087245635
 23
98.00292535915919
 33
0.0
 14
-130.312087245635
 24
128.0029253591592
 34
0.0
 50
90.0
100
AcDbRotatedDimension
  0
DIMENSION
  5
379
330
1F
100
AcDbEntity
  8
1
100
AcDbDimension
  2
*D6
 10
-105.1430499638676
 20
124.0029253591592
 30
0.0
 11
-105.1430499638676
 21
113.0029253591592
 31
0.0
 70
    32
  1
<>
 71
     5
 42
-1.0
 53
0.00013888888889
  3
ME10_DIM_13
100
AcDbAlignedDimension
 13
-122.912087245635
 23
102.0029253591592
 33
0.0
 14
-122.912087245635
 24
124.0029253591592
 34
0.0
 50
90.0
100
AcDbRotatedDimension
  0
DIMENSION
  5
384
330
1F
100
AcDbEntity
  8
1
100
AcDbDimension
  2
*D7
 10
-144.912087245635
 20
74.6836560641794
 30
0.0
 11
-133.912087245635
 21
78.1836560641794
 31
0.0
 70
    32
  1
<>
 71
     5
 42
-1.0
 53
0.00013888888889
  3
ME10_DIM_14
100
AcDbAlignedDimension
 13
-122.912087245635
 23
102.0029253591592
 33
0.0
 14
-144.912087245635
 24
102.0029253591592
 34
0.0
100
AcDbRotatedDimension
  0
DIMENSION
  5
38F
330
1F
100
AcDbEntity
  8
1
100
AcDbDimension
  2
*D8
 10
-67.81208724563498
 20
270.611155152888
 30
0.0
 11
-51.51208724563503
 21
274.111155152888
 31
0.0
 70
    32
  1
33
 71
     5
 42
-1.0
 53
0.00013888888889
  3
ME10_DIM_15
100
AcDbAlignedDimension
 13
-35.21208724563508
 23
261.7292584791146
 33
0.0
 14
-67.81208724563498
 24
261.7292584791146
 34
0.0
100
AcDbRotatedDimension
  0
DIMENSION
  5
39B
330
1F
100
AcDbEntity
  8
1
100
AcDbDimension
  2
*D9
 10
-23.96208724563508
 20
146.9029253591591
 30
0.0
 11
-23.96208724563508
 21
131.9029253591591
 31
0.0
 70
    32
  1
<>
 71
     5
 42
-1.0
 53
0.00013888888889
  3
ME10_DIM_16
100
AcDbAlignedDimension
 13
-47.91208724563501
 23
116.9029253591591
 33
0.0
 14
-47.91208724563501
 24
146.9029253591591
 34
0.0
 50
90.0
100
AcDbRotatedDimension
  0
DIMENSION
  5
3A6
330
1F
100
AcDbEntity
  8
1
100
AcDbDimension
  2
*D10
 10
-152.3620872456351
 20
186.0154267571644
 30
0.0
 11
-131.3620872456351
 21
189.5154267571644
 31
0.0
 70
    32
  1
<>
 71
     5
 42
-1.0
 53
0.00013888888889
  3
ME10_DIM_17
100
AcDbAlignedDimension
 13
-110.3620872456351
 23
219.5728717612658
 33
0.0
 14
-152.3620872456351
 24
219.5728717612658
 34
0.0
100
AcDbRotatedDimension
  0
DIMENSION
  5
3B3
330
1F
100
AcDbEntity
  8
1
100
AcDbDimension
  2
*D11
 10
-160.3620872456351
 20
186.0154267571644
 30
0.0
 11
-156.3620872456351
 21
189.5154267571644
 31
0.0
 70
    32
  1
<>
 71
     5
 42
-1.0
 53
0.00013888888889
  3
ME10_DIM_18
100
AcDbAlignedDimension
 13
-152.3620872456351
 23
219.5728717612658
 33
0.0
 14
-160.3620872456351
 24
238.0728717612658
 34
0.0
100
AcDbRotatedDimension
  0
DIMENSION
  5
3BE
330
1F
100
AcDbEntity
  8
1
100
AcDbDimension
  2
*D12
 10
-66.76208724563509
 20
185.8654267571644
 30
0.0
 11
-51.51208724563503
 21
189.5154267571644
 31
0.0
 70
    32
  1
<>
 71
     5
 42
-1.0
 53
0.00013888888889
  3
ME10_DIM_19
100
AcDbAlignedDimension
 13
-36.26208724563503
 23
219.5728717612658
 33
0.0
 14
-66.76208724563514
 24
219.5728717612658
 34
0.0
100
AcDbRotatedDimension
  0
INSERT
  5
3C7
330
1F
100
AcDbEntity
  8
1
100
AcDbBlockReference
  2
*D13
 10
0.0
 20
0.0
 30
0.0
  0
INSERT
  5
3D0
330
1F
100
AcDbEntity
  8
1
100
AcDbBlockReference
  2
*D14
 10
0.0
 20
0.0
 30
0.0
  0
HATCH
  5
3D1
330
1F
100
AcDbEntity
  8
1
  6
Continuous
 62
     2
100
AcDbHatch
 10
0.0
 20
0.0
 30
0.0
210
0.0
220
0.0
230
1.0
  2
SOLID
 70
     1
 71
     1
 91
        1
 92
        1
 93
       20
 72
     1
 10
-36.26208724563503
 20
141.8124353691552
 11
-36.26208724563503
 21
139.066663479613
 72
     1
 10
-36.26208724563503
 20
139.066663479613
 11
-36.41208724563501
 21
139.066663479613
 72
     1
 10
-36.41208724563501
 20
139.066663479613
 11
-36.41208724563501
 21
140.5666634796102
 72
     1
 10
-36.41208724563501
 20
140.5666634796102
 11
-37.51208724563503
 21
140.5666634796102
 72
     1
 10
-37.51208724563503
 20
140.5666634796102
 11
-37.51208724563503
 21
141.7067729364525
 72
     2
 10
-42.51208724563503
 20
141.7067729364525
 40
5.0
 50
0.0
 51
60.00000000000011
 73
     1
 72
     1
 10
-40.01208724563503
 20
146.0368999553747
 11
-49.01208724563503
 21
151.2330523780813
 72
     2
 10
-51.51208724563503
 20
146.9029253591591
 40
5.000000000000016
 50
60.00000000000011
 51
119.9999999999999
 73
     1
 72
     1
 10
-54.01208724563503
 20
151.2330523780813
 11
-63.01208724563503
 21
146.0368999553747
 72
     2
 10
-60.51208724563503
 20
141.7067729364525
 40
5.000000000000016
 50
119.9999999999999
 51
180.0
 73
     1
 72
     1
 10
-65.51208724563503
 20
141.7067729364525
 11
-65.51208724563503
 21
140.5666634796101
 72
     1
 10
-65.51208724563503
 20
140.5666634796101
 11
-66.61208724563505
 21
140.5666634796102
 72
     1
 10
-66.61208724563505
 20
140.5666634796102
 11
-66.61208724563505
 21
139.066663479613
 72
     1
 10
-66.61208724563505
 20
139.066663479613
 11
-66.76208724563514
 21
139.066663479613
 72
     1
 10
-66.76208724563514
 20
139.066663479613
 11
-66.76208724563514
 21
141.8124353691552
 72
     2
 10
-60.76208724563503
 20
141.8124353691552
 40
6.000000000000074
 50
180.0
 51
240.0000000000004
 73
     0
 72
     1
 10
-63.76208724563503
 20
147.0085877918619
 11
-54.51208724563503
 21
152.3490777818659
 72
     2
 10
-51.51208724563503
 20
147.1529253591591
 40
6.000000000000148
 50
240.0000000000009
 51
299.9999999999992
 73
     0
 72
     1
 10
-48.51208724563503
 20
152.3490777818659
 11
-39.26208724563503
 21
147.0085877918619
 72
     2
 10
-42.26208724563503
 20
141.8124353691552
 40
6.0
 50
299.9999999999995
 51
360.0
 73
     0
 97
       20
330
21A
330
229
330
22A
330
226
330
AE
330
27D
330
AF
330
27B
330
AA
330
282
330
B3
330
228
330
224
330
223
330
225
330
335
330
21B
330
336
330
219
330
337
 75
     0
 76
     1
 98
        1
 10
0.0
 20
0.0
  0
HATCH
  5
3D2
330
1F
100
AcDbEntity
  8
1
  6
Continuous
 62
     2
100
AcDbHatch
 10
0.0
 20
0.0
 30
0.0
210
0.0
220
0.0
230
1.0
  2
SOLID
 70
     1
 71
     1
 91
        1
 92
        1
 93
        7
 72
     2
 10
-60.51208724563503
 20
122.0990777818658
 40
4.999999999999983
 50
120.0
 51
154.1580672368333
 73
     0
 72
     1
 10
-65.01208724563503
 20
119.9196283100955
 11
-65.01208724563503
 21
119.1795509932651
 72
     2
 10
-66.2503718864416
 20
119.5511470631632
 40
1.29283892686642
 50
16.70394236277559
 51
59.51466831168744
 73
     0
 72
     2
 10
-60.76208724563503
 20
121.9934153491631
 40
6.0000000000006
 50
216.3510244418893
 51
239.9999999999994
 73
     1
 72
     1
 10
-63.76208724563503
 20
116.7972629264566
 11
-62.21304913995823
 21
115.9029253591591
 72
     1
 10
-62.21304913995823
 20
115.9029253591591
 11
-59.78003643806619
 21
115.9029253591591
 72
     1
 10
-59.78003643806619
 20
115.9029253591591
 11
-63.01208724563503
 21
117.7689507629436
 97
        7
330
230
330
21C
330
338
330
2CF
330
22E
330
2D0
330
22F
 75
     0
 76
     1
 98
        1
 10
0.0
 20
0.0
  0
HATCH
  5
3D3
330
1F
100
AcDbEntity
  8
1
  6
Continuous
 62
     2
100
AcDbHatch
 10
0.0
 20
0.0
 30
0.0
210
0.0
220
0.0
230
1.0
  2
SOLID
 70
     1
 71
     1
 91
        1
 92
        1
 93
        7
 72
     1
 10
-43.24413805320387
 20
115.9029253591591
 11
-40.81112535131183
 21
115.9029253591591
 72
     1
 10
-40.81112535131183
 20
115.9029253591591
 11
-39.26208724563503
 21
116.7972629264566
 72
     2
 10
-42.26208724563503
 20
121.9934153491631
 40
5.999999999999889
 50
300.0000000000006
 51
323.6489755581107
 73
     1
 72
     2
 10
-36.77380260482846
 20
119.5511470631632
 40
1.29283892686644
 50
120.4853316883128
 51
163.2960576372244
 73
     0
 72
     1
 10
-38.01208724563503
 20
119.1795509932651
 11
-38.01208724563503
 21
119.9196283100955
 72
     2
 10
-42.51208724563503
 20
122.0990777818658
 40
5.000000000000004
 50
25.84193276316675
 51
60.00000000000004
 73
     0
 72
     1
 10
-40.01208724563503
 20
117.7689507629436
 11
-43.24413805320387
 21
115.9029253591591
 97
        7
330
231
330
234
330
339
330
2D2
330
233
330
2D1
330
232
 75
     0
 76
     1
 98
        1
 10
0.0
 20
0.0
  0
HATCH
  5
3D4
330
1F
100
AcDbEntity
  8
1
  6
Continuous
 62
     2
100
AcDbHatch
 10
0.0
 20
0.0
 30
0.0
210
0.0
220
0.0
230
1.0
  2
SOLID
 70
     1
 71
     1
 91
        1
 92
        1
 93
        4
 72
     1
 10
-110.3620872456351
 20
223.2728717612659
 11
-110.3620872456351
 21
219.5728717612658
 72
     1
 10
-110.3620872456351
 20
219.5728717612658
 11
-152.3620872456351
 21
219.5728717612658
 72
     1
 10
-152.3620872456351
 20
219.5728717612658
 11
-152.3620872456351
 21
223.2728717612659
 72
     1
 10
-152.3620872456351
 20
223.2728717612659
 11
-110.3620872456351
 21
223.2728717612659
 97
        4
330
238
330
237
330
23A
330
239
 75
     0
 76
     1
 98
        1
 10
0.0
 20
0.0
  0
HATCH
  5
3D5
330
1F
100
AcDbEntity
  8
1
  6
Continuous
 62
     2
100
AcDbHatch
 10
0.0
 20
0.0
 30
0.0
210
0.0
220
0.0
230
1.0
  2
SOLID
 70
     1
 71
     1
 91
        1
 92
        1
 93
        4
 72
     1
 10
-36.26208724563503
 20
223.2728717612659
 11
-36.26208724563503
 21
219.5728717612658
 72
     1
 10
-36.26208724563503
 20
219.5728717612658
 11
-66.76208724563514
 21
219.5728717612658
 72
     1
 10
-66.76208724563514
 20
219.5728717612658
 11
-66.76208724563514
 21
223.2728717612659
 72
     1
 10
-66.76208724563514
 20
223.2728717612659
 11
-36.26208724563503
 21
223.2728717612659
 97
        4
330
21E
330
21F
330
220
330
21D
 75
     0
 76
     1
 98
        1
 10
0.0
 20
0.0
  0
ENDSEC
  0
SECTION
  2
OBJECTS
  0
DICTIONARY
  5
C
330
0
100
AcDbDictionary
281
     1
  3
ACAD_GROUP
350
D
  3
ACAD_LAYOUT
350
1A
  3
ACAD_MATERIAL
350
3B
  3
ACAD_MLEADERSTYLE
350
3D8
  3
ACAD_MLINESTYLE
350
17
  3
ACAD_PLOTSETTINGS
350
19
  3
ACAD_PLOTSTYLENAME
350
E
  3
ACAD_VISUALSTYLE
350
2A
  3
AcDbVariableDictionary
350
3D6
  0
DICTIONARY
  5
D
102
{ACAD_REACTORS
330
C
102
}
330
C
100
AcDbDictionary
281
     1
  0
DICTIONARY
  5
1A
102
{ACAD_REACTORS
330
C
102
}
330
C
100
AcDbDictionary
281
     1
  3
Layout1
350
1E
  3
Layout2
350
26
  3
Model
350
22
  0
DICTIONARY
  5
3B
102
{ACAD_REACTORS
330
C
102
}
330
C
100
AcDbDictionary
281
     1
  3
ByBlock
350
3D
  3
ByLayer
350
3C
  3
Global
350
3E
  0
DICTIONARY
  5
3D8
102
{ACAD_REACTORS
330
C
102
}
330
C
100
AcDbDictionary
281
     1
  0
DICTIONARY
  5
17
102
{ACAD_REACTORS
330
C
102
}
330
C
100
AcDbDictionary
281
     1
  3
Standard
350
18
  0
DICTIONARY
  5
19
102
{ACAD_REACTORS
330
C
102
}
330
C
100
AcDbDictionary
281
     1
  0
ACDBDICTIONARYWDFLT
  5
E
102
{ACAD_REACTORS
330
C
102
}
330
C
100
AcDbDictionary
281
     1
  3
Normal
350
F
100
AcDbDictionaryWithDefault
340
F
  0
DICTIONARY
  5
2A
102
{ACAD_REACTORS
330
C
102
}
330
C
100
AcDbDictionary
281
     1
  3
2dWireframe
350
2F
  3
3D Hidden
350
31
  3
3dWireframe
350
30
  3
Basic
350
32
  3
Brighten
350
36
  3
ColorChange
350
3A
  3
Conceptual
350
34
  3
Dim
350
35
  3
Facepattern
350
39
  3
Flat
350
2B
  3
FlatWithEdges
350
2C
  3
Gouraud
350
2D
  3
GouraudWithEdges
350
2E
  3
Linepattern
350
38
  3
Realistic
350
33
  3
Thicken
350
37
  0
DICTIONARY
  5
3D6
102
{ACAD_REACTORS
330
C
102
}
330
C
100
AcDbDictionary
281
     1
  3
DIMASSOC
350
3D9
  3
HIDETEXT
350
3DA
  0
LAYOUT
  5
1E
102
{ACAD_REACTORS
330
1A
102
}
330
1A
100
AcDbPlotSettings
  1

  2
none_device
  4

  6

 40
0.0
 41
0.0
 42
0.0
 43
0.0
 44
0.0
 45
0.0
 46
0.0
 47
0.0
 48
0.0
 49
0.0
140
0.0
141
0.0
142
1.0
143
1.0
 70
   688
 72
     0
 73
     0
 74
     5
  7

 75
    16
147
1.0
148
0.0
149
0.0
100
AcDbLayout
  1
Layout1
 70
     1
 71
     1
 10
0.0
 20
0.0
 11
12.0
 21
9.0
 12
0.0
 22
0.0
 32
0.0
 14
1.00000000000000E+20
 24
1.00000000000000E+20
 34
1.00000000000000E+20
 15
-1.00000000000000E+20
 25
-1.00000000000000E+20
 35
-1.00000000000000E+20
146
0.0
 13
0.0
 23
0.0
 33
0.0
 16
1.0
 26
0.0
 36
0.0
 17
0.0
 27
1.0
 37
0.0
 76
     0
330
1B
  0
LAYOUT
  5
26
102
{ACAD_REACTORS
330
1A
102
}
330
1A
100
AcDbPlotSettings
  1

  2
none_device
  4

  6

 40
0.0
 41
0.0
 42
0.0
 43
0.0
 44
0.0
 45
0.0
 46
0.0
 47
0.0
 48
0.0
 49
0.0
140
0.0
141
0.0
142
1.0
143
1.0
 70
   688
 72
     0
 73
     0
 74
     5
  7

 75
    16
147
1.0
148
0.0
149
0.0
100
AcDbLayout
  1
Layout2
 70
     1
 71
     2
 10
0.0
 20
0.0
 11
0.0
 21
0.0
 12
0.0
 22
0.0
 32
0.0
 14
0.0
 24
0.0
 34
0.0
 15
0.0
 25
0.0
 35
0.0
146
0.0
 13
0.0
 23
0.0
 33
0.0
 16
1.0
 26
0.0
 36
0.0
 17
0.0
 27
1.0
 37
0.0
 76
     0
330
23
  0
LAYOUT
  5
22
102
{ACAD_REACTORS
330
1A
102
}
330
1A
100
AcDbPlotSettings
  1

  2
none_device
  4

  6

 40
0.0
 41
0.0
 42
0.0
 43
0.0
 44
0.0
 45
0.0
 46
0.0
 47
0.0
 48
0.0
 49
0.0
140
0.0
141
0.0
142
1.0
143
1.0
 70
  1712
 72
     0
 73
     0
 74
     0
  7

 75
     0
147
1.0
148
0.0
149
0.0
100
AcDbLayout
  1
Model
 70
     1
 71
     0
 10
0.0
 20
0.0
 11
12.0
 21
9.0
 12
0.0
 22
0.0
 32
0.0
 14
-210.0000000000001
 24
0.0
 34
0.0
 15
0.0
 25
297.0000000000001
 35
0.0
146
0.0
 13
0.0
 23
0.0
 33
0.0
 16
1.0
 26
0.0
 36
0.0
 17
0.0
 27
1.0
 37
0.0
 76
     0
330
1F
331
29
  0
MATERIAL
  5
3D
102
{ACAD_REACTORS
330
3B
102
}
102
{ACAD_XDICTIONARY
360
3FD
102
}
330
3B
100
AcDbMaterial
  1
ByBlock
  0
MATERIAL
  5
3C
102
{ACAD_REACTORS
330
3B
102
}
102
{ACAD_XDICTIONARY
360
3FB
102
}
330
3B
100
AcDbMaterial
  1
ByLayer
  0
MATERIAL
  5
3E
102
{ACAD_REACTORS
330
3B
102
}
102
{ACAD_XDICTIONARY
360
3FF
102
}
330
3B
100
AcDbMaterial
  1
Global
  0
MLINESTYLE
  5
18
102
{ACAD_REACTORS
330
17
102
}
330
17
100
AcDbMlineStyle
  2
Standard
 70
     0
  3

 62
   256
 51
90.0
 52
90.0
 71
     2
 49
0.5
 62
   256
  6
BYLAYER
 49
-0.5
 62
   256
  6
BYLAYER
  0
ACDBPLACEHOLDER
  5
F
102
{ACAD_REACTORS
330
E
102
}
330
E
  0
VISUALSTYLE
  5
2F
102
{ACAD_REACTORS
330
2A
102
}
102
{ACAD_XDICTIONARY
360
3E3
102
}
330
2A
100
AcDbVisualStyle
  2
2dWireframe
 70
     4
 71
     0
 72
     2
 73
     0
 90
        0
 40
-0.6
 41
-30.0
 62
     5
 63
     7
 74
     1
 91
        4
 64
     7
 65
   257
 75
     1
175
     1
 42
1.0
 92
        0
 66
   257
 43
1.0
 76
     1
 77
     6
 78
     2
 67
     7
 79
     5
170
     0
171
     0
290
     0
174
     0
 93
        1
 44
0.0
173
     0
291
     0
 45
0.0
1001
ACAD
1000
AcDbSavedByObjectVersion
1070
     0
  0
VISUALSTYLE
  5
31
102
{ACAD_REACTORS
330
2A
102
}
102
{ACAD_XDICTIONARY
360
3E7
102
}
330
2A
100
AcDbVisualStyle
  2
3D Hidden
 70
     6
 71
     1
 72
     2
 73
     2
 90
        0
 40
-0.6
 41
-30.0
 62
     5
 63
     7
 74
     2
 91
        2
 64
     7
 65
   257
 75
     2
175
     1
 42
40.0
 92
        0
 66
   257
 43
1.0
 76
     1
 77
     6
 78
     2
 67
     7
 79
     3
170
     0
171
     0
290
     0
174
     0
 93
        1
 44
0.0
173
     0
291
     0
 45
0.0
1001
ACAD
1000
AcDbSavedByObjectVersion
1070
     0
  0
VISUALSTYLE
  5
30
102
{ACAD_REACTORS
330
2A
102
}
102
{ACAD_XDICTIONARY
360
3E5
102
}
330
2A
100
AcDbVisualStyle
  2
3dWireframe
 70
     5
 71
     0
 72
     2
 73
     0
 90
        0
 40
-0.6
 41
-30.0
 62
     5
 63
     7
 74
     1
 91
        4
 64
     7
 65
   257
 75
     1
175
     1
 42
1.0
 92
        0
 66
   257
 43
1.0
 76
     1
 77
     6
 78
     2
 67
     7
 79
     5
170
     0
171
     0
290
     0
174
     0
 93
        1
 44
0.0
173
     0
291
     0
 45
0.0
1001
ACAD
1000
AcDbSavedByObjectVersion
1070
     0
  0
VISUALSTYLE
  5
32
102
{ACAD_REACTORS
330
2A
102
}
102
{ACAD_XDICTIONARY
360
3E9
102
}
330
2A
100
AcDbVisualStyle
  2
Basic
 70
     7
 71
     1
 72
     0
 73
     1
 90
        0
 40
-0.6
 41
-30.0
 62
     5
 63
     7
 74
     0
 91
        4
 64
     7
 65
   257
 75
     1
175
     1
 42
1.0
 92
        8
 66
     7
 43
1.0
 76
     1
 77
     6
 78
     2
 67
     7
 79
     5
170
     0
171
     0
290
     0
174
     0
 93
        1
 44
0.0
173
     0
291
     1
 45
0.0
1001
ACAD
1000
AcDbSavedByObjectVersion
1070
     0
  0
VISUALSTYLE
  5
36
102
{ACAD_REACTORS
330
2A
102
}
102
{ACAD_XDICTIONARY
360
3F1
102
}
330
2A
100
AcDbVisualStyle
  2
Brighten
 70
    12
 71
     2
 72
     2
 73
     0
 90
        0
 40
-0.6
 41
-30.0
 62
     5
 63
     7
 74
     1
 91
        4
 64
     7
 65
   257
 75
     1
175
     1
 42
1.0
 92
        8
 66
     7
 43
1.0
 76
     1
 77
     6
 78
     2
 67
     7
 79
     5
170
     0
171
     0
290
     0
174
     0
 93
        1
 44
50.0
173
     0
291
     1
 45
0.0
1001
ACAD
1000
AcDbSavedByObjectVersion
1070
     0
  0
VISUALSTYLE
  5
3A
102
{ACAD_REACTORS
330
2A
102
}
102
{ACAD_XDICTIONARY
360
3F9
102
}
330
2A
100
AcDbVisualStyle
  2
ColorChange
 70
    16
 71
     2
 72
     2
 73
     3
 90
        0
 40
-0.6
 41
-30.0
 62
     5
 63
     8
 74
     1
 91
        4
 64
     7
 65
   257
 75
     1
175
     1
 42
1.0
 92
        8
 66
     8
 43
1.0
 76
     1
 77
     6
 78
     2
 67
     7
 79
     5
170
     0
171
     0
290
     0
174
     0
 93
        1
 44
0.0
173
     0
291
     1
 45
0.0
1001
ACAD
1000
AcDbSavedByObjectVersion
1070
     0
  0
VISUALSTYLE
  5
34
102
{ACAD_REACTORS
330
2A
102
}
102
{ACAD_XDICTIONARY
360
3ED
102
}
330
2A
100
AcDbVisualStyle
  2
Conceptual
 70
     9
 71
     3
 72
     2
 73
     0
 90
        0
 40
-0.6
 41
-30.0
 62
     5
 63
     7
 74
     2
 91
        2
 64
     7
 65
   257
 75
     1
175
     1
 42
40.0
 92
        8
 66
     7
 43
1.0
 76
     1
 77
     6
 78
     2
 67
     7
 79
     3
170
     0
171
     0
290
     0
174
     0
 93
        1
 44
0.0
173
     0
291
     0
 45
0.0
1001
ACAD
1000
AcDbSavedByObjectVersion
1070
     0
  0
VISUALSTYLE
  5
35
102
{ACAD_REACTORS
330
2A
102
}
102
{ACAD_XDICTIONARY
360
3EF
102
}
330
2A
100
AcDbVisualStyle
  2
Dim
 70
    11
 71
     2
 72
     2
 73
     0
 90
        0
 40
-0.6
 41
-30.0
 62
     5
 63
     7
 74
     1
 91
        4
 64
     7
 65
   257
 75
     1
175
     1
 42
1.0
 92
        8
 66
     7
 43
1.0
 76
     1
 77
     6
 78
     2
 67
     7
 79
     5
170
     0
171
     0
290
     0
174
     0
 93
        1
 44
-50.0
173
     0
291
     1
 45
0.0
1001
ACAD
1000
AcDbSavedByObjectVersion
1070
     0
  0
VISUALSTYLE
  5
39
102
{ACAD_REACTORS
330
2A
102
}
102
{ACAD_XDICTIONARY
360
3F7
102
}
330
2A
100
AcDbVisualStyle
  2
Facepattern
 70
    15
 71
     2
 72
     2
 73
     0
 90
        0
 40
-0.6
 41
-30.0
 62
     5
 63
     7
 74
     1
 91
        4
 64
     7
 65
   257
 75
     1
175
     1
 42
1.0
 92
        8
 66
     7
 43
1.0
 76
     1
 77
     6
 78
     2
 67
     7
 79
     5
170
     0
171
     0
290
     0
174
     0
 93
        1
 44
0.0
173
     0
291
     1
 45
0.0
1001
ACAD
1000
AcDbSavedByObjectVersion
1070
     0
  0
VISUALSTYLE
  5
2B
102
{ACAD_REACTORS
330
2A
102
}
102
{ACAD_XDICTIONARY
360
3DB
102
}
330
2A
100
AcDbVisualStyle
  2
Flat
 70
     0
 71
     2
 72
     1
 73
     1
 90
        2
 40
-0.6
 41
30.0
 62
     5
 63
     7
 74
     0
 91
        4
 64
     7
 65
   257
 75
     1
175
     1
 42
1.0
 92
        8
 66
     7
 43
1.0
 76
     1
 77
     6
 78
     2
 67
     7
 79
     5
170
     0
171
     0
290
     0
174
     0
 93
       13
 44
0.0
173
     0
291
     1
 45
0.0
1001
ACAD
1000
AcDbSavedByObjectVersion
1070
     0
  0
VISUALSTYLE
  5
2C
102
{ACAD_REACTORS
330
2A
102
}
102
{ACAD_XDICTIONARY
360
3DD
102
}
330
2A
100
AcDbVisualStyle
  2
FlatWithEdges
 70
     1
 71
     2
 72
     1
 73
     1
 90
        2
 40
-0.6
 41
30.0
 62
     5
 63
     7
 74
     1
 91
        4
 64
     7
 65
   257
 75
     1
175
     1
 42
1.0
 92
        0
 66
   257
 43
1.0
 76
     1
 77
     6
 78
     2
 67
     7
 79
     5
170
     0
171
     0
290
     0
174
     0
 93
       13
 44
0.0
173
     0
291
     1
 45
0.0
1001
ACAD
1000
AcDbSavedByObjectVersion
1070
     0
  0
VISUALSTYLE
  5
2D
102
{ACAD_REACTORS
330
2A
102
}
102
{ACAD_XDICTIONARY
360
3DF
102
}
330
2A
100
AcDbVisualStyle
  2
Gouraud
 70
     2
 71
     2
 72
     2
 73
     1
 90
        2
 40
-0.6
 41
30.0
 62
     5
 63
     7
 74
     0
 91
        4
 64
     7
 65
   257
 75
     1
175
     1
 42
1.0
 92
        0
 66
     7
 43
1.0
 76
     1
 77
     6
 78
     2
 67
     7
 79
     5
170
     0
171
     0
290
     0
174
     0
 93
       13
 44
0.0
173
     0
291
     1
 45
0.0
1001
ACAD
1000
AcDbSavedByObjectVersion
1070
     0
  0
VISUALSTYLE
  5
2E
102
{ACAD_REACTORS
330
2A
102
}
102
{ACAD_XDICTIONARY
360
3E1
102
}
330
2A
100
AcDbVisualStyle
  2
GouraudWithEdges
 70
     3
 71
     2
 72
     2
 73
     1
 90
        2
 40
-0.6
 41
30.0
 62
     5
 63
     7
 74
     1
 91
        4
 64
     7
 65
   257
 75
     1
175
     1
 42
1.0
 92
        0
 66
   257
 43
1.0
 76
     1
 77
     6
 78
     2
 67
     7
 79
     5
170
     0
171
     0
290
     0
174
     0
 93
       13
 44
0.0
173
     0
291
     1
 45
0.0
1001
ACAD
1000
AcDbSavedByObjectVersion
1070
     0
  0
VISUALSTYLE
  5
38
102
{ACAD_REACTORS
330
2A
102
}
102
{ACAD_XDICTIONARY
360
3F5
102
}
330
2A
100
AcDbVisualStyle
  2
Linepattern
 70
    14
 71
     2
 72
     2
 73
     0
 90
        0
 40
-0.6
 41
-30.0
 62
     5
 63
     7
 74
     1
 91
        4
 64
     7
 65
   257
 75
     7
175
     7
 42
1.0
 92
        8
 66
     7
 43
1.0
 76
     1
 77
     6
 78
     2
 67
     7
 79
     5
170
     0
171
     0
290
     0
174
     0
 93
        1
 44
0.0
173
     0
291
     1
 45
0.0
1001
ACAD
1000
AcDbSavedByObjectVersion
1070
     0
  0
VISUALSTYLE
  5
33
102
{ACAD_REACTORS
330
2A
102
}
102
{ACAD_XDICTIONARY
360
3EB
102
}
330
2A
100
AcDbVisualStyle
  2
Realistic
 70
     8
 71
     2
 72
     2
 73
     0
 90
        0
 40
-0.6
 41
-30.0
 62
     5
 63
     7
 74
     1
 91
        0
 64
     7
 65
   257
 75
     1
175
     1
 42
1.0
 92
        8
 66
     8
 43
1.0
 76
     1
 77
     6
 78
     2
 67
     7
 79
     5
170
     0
171
     0
290
     0
174
     0
 93
       13
 44
0.0
173
     0
291
     0
 45
0.0
1001
ACAD
1000
AcDbSavedByObjectVersion
1070
     0
  0
VISUALSTYLE
  5
37
102
{ACAD_REACTORS
330
2A
102
}
102
{ACAD_XDICTIONARY
360
3F3
102
}
330
2A
100
AcDbVisualStyle
  2
Thicken
 70
    13
 71
     2
 72
     2
 73
     0
 90
        0
 40
-0.6
 41
-30.0
 62
     5
 63
     7
 74
     1
 91
        4
 64
     7
 65
   257
 75
     1
175
     1
 42
1.0
 92
       12
 66
     7
 43
1.0
 76
     1
 77
     6
 78
     2
 67
     7
 79
     5
170
     0
171
     0
290
     0
174
     0
 93
        1
 44
0.0
173
     0
291
     1
 45
0.0
1001
ACAD
1000
AcDbSavedByObjectVersion
1070
     0
  0
DICTIONARYVAR
  5
3D9
102
{ACAD_REACTORS
330
3D6
102
}
330
3D6
100
DictionaryVariables
280
     0
  1
2
  0
DICTIONARYVAR
  5
3DA
102
{ACAD_REACTORS
330
3D6
102
}
330
3D6
100
DictionaryVariables
280
     0
  1
1
  0
DICTIONARY
  5
3FD
330
3D
100
AcDbDictionary
280
     1
281
     1
  3
ACAD_XREC_ROUNDTRIP
360
3FE
  0
DICTIONARY
  5
3FB
330
3C
100
AcDbDictionary
280
     1
281
     1
  3
ACAD_XREC_ROUNDTRIP
360
3FC
  0
DICTIONARY
  5
3FF
330
3E
100
AcDbDictionary
280
     1
281
     1
  3
ACAD_XREC_ROUNDTRIP
360
400
  0
DICTIONARY
  5
3E3
330
2F
100
AcDbDictionary
280
     1
281
     1
  3
ACAD_XREC_ROUNDTRIP
360
3E4
  0
DICTIONARY
  5
3E7
330
31
100
AcDbDictionary
280
     1
281
     1
  3
ACAD_XREC_ROUNDTRIP
360
3E8
  0
DICTIONARY
  5
3E5
330
30
100
AcDbDictionary
280
     1
281
     1
  3
ACAD_XREC_ROUNDTRIP
360
3E6
  0
DICTIONARY
  5
3E9
330
32
100
AcDbDictionary
280
     1
281
     1
  3
ACAD_XREC_ROUNDTRIP
360
3EA
  0
DICTIONARY
  5
3F1
330
36
100
AcDbDictionary
280
     1
281
     1
  3
ACAD_XREC_ROUNDTRIP
360
3F2
  0
DICTIONARY
  5
3F9
330
3A
100
AcDbDictionary
280
     1
281
     1
  3
ACAD_XREC_ROUNDTRIP
360
3FA
  0
DICTIONARY
  5
3ED
330
34
100
AcDbDictionary
280
     1
281
     1
  3
ACAD_XREC_ROUNDTRIP
360
3EE
  0
DICTIONARY
  5
3EF
330
35
100
AcDbDictionary
280
     1
281
     1
  3
ACAD_XREC_ROUNDTRIP
360
3F0
  0
DICTIONARY
  5
3F7
330
39
100
AcDbDictionary
280
     1
281
     1
  3
ACAD_XREC_ROUNDTRIP
360
3F8
  0
DICTIONARY
  5
3DB
330
2B
100
AcDbDictionary
280
     1
281
     1
  3
ACAD_XREC_ROUNDTRIP
360
3DC
  0
DICTIONARY
  5
3DD
330
2C
100
AcDbDictionary
280
     1
281
     1
  3
ACAD_XREC_ROUNDTRIP
360
3DE
  0
DICTIONARY
  5
3DF
330
2D
100
AcDbDictionary
280
     1
281
     1
  3
ACAD_XREC_ROUNDTRIP
360
3E0
  0
DICTIONARY
  5
3E1
330
2E
100
AcDbDictionary
280
     1
281
     1
  3
ACAD_XREC_ROUNDTRIP
360
3E2
  0
DICTIONARY
  5
3F5
330
38
100
AcDbDictionary
280
     1
281
     1
  3
ACAD_XREC_ROUNDTRIP
360
3F6
  0
DICTIONARY
  5
3EB
330
33
100
AcDbDictionary
280
     1
281
     1
  3
ACAD_XREC_ROUNDTRIP
360
3EC
  0
DICTIONARY
  5
3F3
330
37
100
AcDbDictionary
280
     1
281
     1
  3
ACAD_XREC_ROUNDTRIP
360
3F4
  0
XRECORD
  5
3FE
102
{ACAD_REACTORS
330
3FD
102
}
330
3FD
100
AcDbXrecord
280
     1
102
MATERIAL
148
0.0
149
0.0
149
0.0
 93
        0
 94
      127
282
     0
 72
     1
 77
     1
171
     1
175
     1
179
     1
273
     0
  0
XRECORD
  5
3FC
102
{ACAD_REACTORS
330
3FB
102
}
330
3FB
100
AcDbXrecord
280
     1
102
MATERIAL
148
0.0
149
0.0
149
0.0
 93
        0
 94
      127
282
     0
 72
     1
 77
     1
171
     1
175
     1
179
     1
273
     0
  0
XRECORD
  5
400
102
{ACAD_REACTORS
330
3FF
102
}
330
3FF
100
AcDbXrecord
280
     1
102
MATERIAL
148
0.0
149
0.0
149
0.0
 93
        0
 94
      127
282
     0
 72
     1
 77
     1
171
     1
175
     1
179
     1
273
     0
  0
XRECORD
  5
3E4
102
{ACAD_REACTORS
330
3E3
102
}
330
3E3
100
AcDbXrecord
280
     1
102
RTVSPropertyOp0
 70
     1
102
RTVSPropertyOp1
 70
     1
102
RTVSPropertyOp2
 70
     1
102
RTVSPropertyOp3
 70
     1
102
RTVSPropertyOp4
 70
     1
102
RTVSPropertyOp5
 70
     1
102
RTVSPropertyOp6
 70
     1
102
RTVSPropertyOp7
 70
     1
102
RTVSPropertyOp8
 70
     1
102
RTVSPropertyOp9
 70
     1
102
RTVSPropertyOp10
 70
     1
102
RTVSPropertyOp11
 70
     1
102
RTVSPropertyOp12
 70
     1
102
RTVSPropertyOp13
 70
     1
102
RTVSPropertyOp14
 70
     1
102
RTVSPropertyOp15
 70
     1
102
RTVSPropertyOp16
 70
     1
102
RTVSPropertyOp17
 70
     1
102
RTVSPropertyOp18
 70
     1
102
RTVSPropertyOp19
 70
     1
102
RTVSPropertyOp20
 70
     1
102
RTVSPropertyOp21
 70
     1
102
RTVSPropertyOp22
 70
     1
102
RTVSPropertyOp23
 70
     1
102
RTVSPropertyOp24
 70
     1
102
RTVSPropertyOp25
 70
     1
102
RTVSPropertyOp26
 70
     1
102
RTVSPropertyOp27
 70
     1
102
RTVSPropertyOp28
 70
     1
102
RTVSPropertyOp29
 70
     1
102
RTVSPropertyOp30
 70
     1
102
RTVSPropertyOp31
 70
     1
102
RTVSPropertyOp32
 70
     1
  0
XRECORD
  5
3E8
102
{ACAD_REACTORS
330
3E7
102
}
330
3E7
100
AcDbXrecord
280
     1
102
RTVSPropertyOp0
 70
     1
102
RTVSPropertyOp1
 70
     1
102
RTVSPropertyOp2
 70
     1
102
RTVSPropertyOp3
 70
     1
102
RTVSPropertyOp4
 70
     1
102
RTVSPropertyOp5
 70
     1
102
RTVSPropertyOp6
 70
     1
102
RTVSPropertyOp7
 70
     1
102
RTVSPropertyOp8
 70
     1
102
RTVSPropertyOp9
 70
     1
102
RTVSPropertyOp10
 70
     1
102
RTVSPropertyOp11
 70
     1
102
RTVSPropertyOp12
 70
     1
102
RTVSPropertyOp13
 70
     1
102
RTVSPropertyOp14
 70
     1
102
RTVSPropertyOp15
 70
     1
102
RTVSPropertyOp16
 70
     1
102
RTVSPropertyOp17
 70
     1
102
RTVSPropertyOp18
 70
     1
102
RTVSPropertyOp19
 70
     1
102
RTVSPropertyOp20
 70
     1
102
RTVSPropertyOp21
 70
     1
102
RTVSPropertyOp22
 70
     1
102
RTVSPropertyOp23
 70
     1
102
RTVSPropertyOp24
 70
     1
102
RTVSPropertyOp25
 70
     1
102
RTVSPropertyOp26
 70
     1
102
RTVSPropertyOp27
 70
     1
102
RTVSPropertyOp28
 70
     1
102
RTVSPropertyOp29
 70
     1
102
RTVSPropertyOp30
 70
     1
102
RTVSPropertyOp31
 70
     1
102
RTVSPropertyOp32
 70
     1
  0
XRECORD
  5
3E6
102
{ACAD_REACTORS
330
3E5
102
}
330
3E5
100
AcDbXrecord
280
     1
102
RTVSPropertyOp0
 70
     1
102
RTVSPropertyOp1
 70
     1
102
RTVSPropertyOp2
 70
     1
102
RTVSPropertyOp3
 70
     1
102
RTVSPropertyOp4
 70
     1
102
RTVSPropertyOp5
 70
     1
102
RTVSPropertyOp6
 70
     1
102
RTVSPropertyOp7
 70
     1
102
RTVSPropertyOp8
 70
     1
102
RTVSPropertyOp9
 70
     1
102
RTVSPropertyOp10
 70
     1
102
RTVSPropertyOp11
 70
     1
102
RTVSPropertyOp12
 70
     1
102
RTVSPropertyOp13
 70
     1
102
RTVSPropertyOp14
 70
     1
102
RTVSPropertyOp15
 70
     1
102
RTVSPropertyOp16
 70
     1
102
RTVSPropertyOp17
 70
     1
102
RTVSPropertyOp18
 70
     1
102
RTVSPropertyOp19
 70
     1
102
RTVSPropertyOp20
 70
     1
102
RTVSPropertyOp21
 70
     1
102
RTVSPropertyOp22
 70
     1
102
RTVSPropertyOp23
 70
     1
102
RTVSPropertyOp24
 70
     1
102
RTVSPropertyOp25
 70
     1
102
RTVSPropertyOp26
 70
     1
102
RTVSPropertyOp27
 70
     1
102
RTVSPropertyOp28
 70
     1
102
RTVSPropertyOp29
 70
     1
102
RTVSPropertyOp30
 70
     1
102
RTVSPropertyOp31
 70
     1
102
RTVSPropertyOp32
 70
     1
  0
XRECORD
  5
3EA
102
{ACAD_REACTORS
330
3E9
102
}
330
3E9
100
AcDbXrecord
280
     1
102
RTVSPropertyOp0
 70
     1
102
RTVSPropertyOp1
 70
     1
102
RTVSPropertyOp2
 70
     1
102
RTVSPropertyOp3
 70
     1
102
RTVSPropertyOp4
 70
     1
102
RTVSPropertyOp5
 70
     1
102
RTVSPropertyOp6
 70
     1
102
RTVSPropertyOp7
 70
     1
102
RTVSPropertyOp8
 70
     1
102
RTVSPropertyOp9
 70
     1
102
RTVSPropertyOp10
 70
     1
102
RTVSPropertyOp11
 70
     1
102
RTVSPropertyOp12
 70
     1
102
RTVSPropertyOp13
 70
     1
102
RTVSPropertyOp14
 70
     1
102
RTVSPropertyOp15
 70
     1
102
RTVSPropertyOp16
 70
     1
102
RTVSPropertyOp17
 70
     1
102
RTVSPropertyOp18
 70
     1
102
RTVSPropertyOp19
 70
     1
102
RTVSPropertyOp20
 70
     1
102
RTVSPropertyOp21
 70
     1
102
RTVSPropertyOp22
 70
     1
102
RTVSPropertyOp23
 70
     1
102
RTVSPropertyOp24
 70
     1
102
RTVSPropertyOp25
 70
     1
102
RTVSPropertyOp26
 70
     1
102
RTVSPropertyOp27
 70
     1
102
RTVSPropertyOp28
 70
     1
102
RTVSPropertyOp29
 70
     1
102
RTVSPropertyOp30
 70
     1
102
RTVSPropertyOp31
 70
     1
102
RTVSPropertyOp32
 70
     1
  0
XRECORD
  5
3F2
102
{ACAD_REACTORS
330
3F1
102
}
330
3F1
100
AcDbXrecord
280
     1
102
RTVSPropertyOp0
 70
     1
102
RTVSPropertyOp1
 70
     1
102
RTVSPropertyOp2
 70
     1
102
RTVSPropertyOp3
 70
     1
102
RTVSPropertyOp4
 70
     1
102
RTVSPropertyOp5
 70
     1
102
RTVSPropertyOp6
 70
     1
102
RTVSPropertyOp7
 70
     1
102
RTVSPropertyOp8
 70
     1
102
RTVSPropertyOp9
 70
     1
102
RTVSPropertyOp10
 70
     1
102
RTVSPropertyOp11
 70
     1
102
RTVSPropertyOp12
 70
     1
102
RTVSPropertyOp13
 70
     1
102
RTVSPropertyOp14
 70
     1
102
RTVSPropertyOp15
 70
     1
102
RTVSPropertyOp16
 70
     1
102
RTVSPropertyOp17
 70
     1
102
RTVSPropertyOp18
 70
     1
102
RTVSPropertyOp19
 70
     1
102
RTVSPropertyOp20
 70
     1
102
RTVSPropertyOp21
 70
     1
102
RTVSPropertyOp22
 70
     1
102
RTVSPropertyOp23
 70
     1
102
RTVSPropertyOp24
 70
     1
102
RTVSPropertyOp25
 70
     1
102
RTVSPropertyOp26
 70
     1
102
RTVSPropertyOp27
 70
     1
102
RTVSPropertyOp28
 70
     1
102
RTVSPropertyOp29
 70
     1
102
RTVSPropertyOp30
 70
     1
102
RTVSPropertyOp31
 70
     1
102
RTVSPropertyOp32
 70
     1
  0
XRECORD
  5
3FA
102
{ACAD_REACTORS
330
3F9
102
}
330
3F9
100
AcDbXrecord
280
     1
102
RTVSPropertyOp0
 70
     1
102
RTVSPropertyOp1
 70
     1
102
RTVSPropertyOp2
 70
     1
102
RTVSPropertyOp3
 70
     1
102
RTVSPropertyOp4
 70
     1
102
RTVSPropertyOp5
 70
     1
102
RTVSPropertyOp6
 70
     1
102
RTVSPropertyOp7
 70
     1
102
RTVSPropertyOp8
 70
     1
102
RTVSPropertyOp9
 70
     1
102
RTVSPropertyOp10
 70
     1
102
RTVSPropertyOp11
 70
     1
102
RTVSPropertyOp12
 70
     1
102
RTVSPropertyOp13
 70
     1
102
RTVSPropertyOp14
 70
     1
102
RTVSPropertyOp15
 70
     1
102
RTVSPropertyOp16
 70
     1
102
RTVSPropertyOp17
 70
     1
102
RTVSPropertyOp18
 70
     1
102
RTVSPropertyOp19
 70
     1
102
RTVSPropertyOp20
 70
     1
102
RTVSPropertyOp21
 70
     1
102
RTVSPropertyOp22
 70
     1
102
RTVSPropertyOp23
 70
     1
102
RTVSPropertyOp24
 70
     1
102
RTVSPropertyOp25
 70
     1
102
RTVSPropertyOp26
 70
     1
102
RTVSPropertyOp27
 70
     1
102
RTVSPropertyOp28
 70
     1
102
RTVSPropertyOp29
 70
     1
102
RTVSPropertyOp30
 70
     1
102
RTVSPropertyOp31
 70
     1
102
RTVSPropertyOp32
 70
     1
  0
XRECORD
  5
3EE
102
{ACAD_REACTORS
330
3ED
102
}
330
3ED
100
AcDbXrecord
280
     1
102
RTVSPropertyOp0
 70
     1
102
RTVSPropertyOp1
 70
     1
102
RTVSPropertyOp2
 70
     1
102
RTVSPropertyOp3
 70
     1
102
RTVSPropertyOp4
 70
     1
102
RTVSPropertyOp5
 70
     1
102
RTVSPropertyOp6
 70
     1
102
RTVSPropertyOp7
 70
     1
102
RTVSPropertyOp8
 70
     1
102
RTVSPropertyOp9
 70
     1
102
RTVSPropertyOp10
 70
     1
102
RTVSPropertyOp11
 70
     1
102
RTVSPropertyOp12
 70
     1
102
RTVSPropertyOp13
 70
     1
102
RTVSPropertyOp14
 70
     1
102
RTVSPropertyOp15
 70
     1
102
RTVSPropertyOp16
 70
     1
102
RTVSPropertyOp17
 70
     1
102
RTVSPropertyOp18
 70
     1
102
RTVSPropertyOp19
 70
     1
102
RTVSPropertyOp20
 70
     1
102
RTVSPropertyOp21
 70
     1
102
RTVSPropertyOp22
 70
     1
102
RTVSPropertyOp23
 70
     1
102
RTVSPropertyOp24
 70
     1
102
RTVSPropertyOp25
 70
     1
102
RTVSPropertyOp26
 70
     1
102
RTVSPropertyOp27
 70
     1
102
RTVSPropertyOp28
 70
     1
102
RTVSPropertyOp29
 70
     1
102
RTVSPropertyOp30
 70
     1
102
RTVSPropertyOp31
 70
     1
102
RTVSPropertyOp32
 70
     1
  0
XRECORD
  5
3F0
102
{ACAD_REACTORS
330
3EF
102
}
330
3EF
100
AcDbXrecord
280
     1
102
RTVSPropertyOp0
 70
     1
102
RTVSPropertyOp1
 70
     1
102
RTVSPropertyOp2
 70
     1
102
RTVSPropertyOp3
 70
     1
102
RTVSPropertyOp4
 70
     1
102
RTVSPropertyOp5
 70
     1
102
RTVSPropertyOp6
 70
     1
102
RTVSPropertyOp7
 70
     1
102
RTVSPropertyOp8
 70
     1
102
RTVSPropertyOp9
 70
     1
102
RTVSPropertyOp10
 70
     1
102
RTVSPropertyOp11
 70
     1
102
RTVSPropertyOp12
 70
     1
102
RTVSPropertyOp13
 70
     1
102
RTVSPropertyOp14
 70
     1
102
RTVSPropertyOp15
 70
     1
102
RTVSPropertyOp16
 70
     1
102
RTVSPropertyOp17
 70
     1
102
RTVSPropertyOp18
 70
     1
102
RTVSPropertyOp19
 70
     1
102
RTVSPropertyOp20
 70
     1
102
RTVSPropertyOp21
 70
     1
102
RTVSPropertyOp22
 70
     1
102
RTVSPropertyOp23
 70
     1
102
RTVSPropertyOp24
 70
     1
102
RTVSPropertyOp25
 70
     1
102
RTVSPropertyOp26
 70
     1
102
RTVSPropertyOp27
 70
     1
102
RTVSPropertyOp28
 70
     1
102
RTVSPropertyOp29
 70
     1
102
RTVSPropertyOp30
 70
     1
102
RTVSPropertyOp31
 70
     1
102
RTVSPropertyOp32
 70
     1
  0
XRECORD
  5
3F8
102
{ACAD_REACTORS
330
3F7
102
}
330
3F7
100
AcDbXrecord
280
     1
102
RTVSPropertyOp0
 70
     1
102
RTVSPropertyOp1
 70
     1
102
RTVSPropertyOp2
 70
     1
102
RTVSPropertyOp3
 70
     1
102
RTVSPropertyOp4
 70
     1
102
RTVSPropertyOp5
 70
     1
102
RTVSPropertyOp6
 70
     1
102
RTVSPropertyOp7
 70
     1
102
RTVSPropertyOp8
 70
     1
102
RTVSPropertyOp9
 70
     1
102
RTVSPropertyOp10
 70
     1
102
RTVSPropertyOp11
 70
     1
102
RTVSPropertyOp12
 70
     1
102
RTVSPropertyOp13
 70
     1
102
RTVSPropertyOp14
 70
     1
102
RTVSPropertyOp15
 70
     1
102
RTVSPropertyOp16
 70
     1
102
RTVSPropertyOp17
 70
     1
102
RTVSPropertyOp18
 70
     1
102
RTVSPropertyOp19
 70
     1
102
RTVSPropertyOp20
 70
     1
102
RTVSPropertyOp21
 70
     1
102
RTVSPropertyOp22
 70
     1
102
RTVSPropertyOp23
 70
     1
102
RTVSPropertyOp24
 70
     1
102
RTVSPropertyOp25
 70
     1
102
RTVSPropertyOp26
 70
     1
102
RTVSPropertyOp27
 70
     1
102
RTVSPropertyOp28
 70
     1
102
RTVSPropertyOp29
 70
     1
102
RTVSPropertyOp30
 70
     1
102
RTVSPropertyOp31
 70
     1
102
RTVSPropertyOp32
 70
     1
  0
XRECORD
  5
3DC
102
{ACAD_REACTORS
330
3DB
102
}
330
3DB
100
AcDbXrecord
280
     1
102
RTVSPropertyOp0
 70
     1
102
RTVSPropertyOp1
 70
     1
102
RTVSPropertyOp2
 70
     1
102
RTVSPropertyOp3
 70
     1
102
RTVSPropertyOp4
 70
     1
102
RTVSPropertyOp5
 70
     1
102
RTVSPropertyOp6
 70
     1
102
RTVSPropertyOp7
 70
     1
102
RTVSPropertyOp8
 70
     1
102
RTVSPropertyOp9
 70
     1
102
RTVSPropertyOp10
 70
     1
102
RTVSPropertyOp11
 70
     1
102
RTVSPropertyOp12
 70
     1
102
RTVSPropertyOp13
 70
     1
102
RTVSPropertyOp14
 70
     1
102
RTVSPropertyOp15
 70
     1
102
RTVSPropertyOp16
 70
     1
102
RTVSPropertyOp17
 70
     1
102
RTVSPropertyOp18
 70
     1
102
RTVSPropertyOp19
 70
     1
102
RTVSPropertyOp20
 70
     1
102
RTVSPropertyOp21
 70
     1
102
RTVSPropertyOp22
 70
     1
102
RTVSPropertyOp23
 70
     1
102
RTVSPropertyOp24
 70
     1
102
RTVSPropertyOp25
 70
     1
102
RTVSPropertyOp26
 70
     1
102
RTVSPropertyOp27
 70
     1
102
RTVSPropertyOp28
 70
     1
102
RTVSPropertyOp29
 70
     1
102
RTVSPropertyOp30
 70
     1
102
RTVSPropertyOp31
 70
     1
102
RTVSPropertyOp32
 70
     1
  0
XRECORD
  5
3DE
102
{ACAD_REACTORS
330
3DD
102
}
330
3DD
100
AcDbXrecord
280
     1
102
RTVSPropertyOp0
 70
     1
102
RTVSPropertyOp1
 70
     1
102
RTVSPropertyOp2
 70
     1
102
RTVSPropertyOp3
 70
     1
102
RTVSPropertyOp4
 70
     1
102
RTVSPropertyOp5
 70
     1
102
RTVSPropertyOp6
 70
     1
102
RTVSPropertyOp7
 70
     1
102
RTVSPropertyOp8
 70
     1
102
RTVSPropertyOp9
 70
     1
102
RTVSPropertyOp10
 70
     1
102
RTVSPropertyOp11
 70
     1
102
RTVSPropertyOp12
 70
     1
102
RTVSPropertyOp13
 70
     1
102
RTVSPropertyOp14
 70
     1
102
RTVSPropertyOp15
 70
     1
102
RTVSPropertyOp16
 70
     1
102
RTVSPropertyOp17
 70
     1
102
RTVSPropertyOp18
 70
     1
102
RTVSPropertyOp19
 70
     1
102
RTVSPropertyOp20
 70
     1
102
RTVSPropertyOp21
 70
     1
102
RTVSPropertyOp22
 70
     1
102
RTVSPropertyOp23
 70
     1
102
RTVSPropertyOp24
 70
     1
102
RTVSPropertyOp25
 70
     1
102
RTVSPropertyOp26
 70
     1
102
RTVSPropertyOp27
 70
     1
102
RTVSPropertyOp28
 70
     1
102
RTVSPropertyOp29
 70
     1
102
RTVSPropertyOp30
 70
     1
102
RTVSPropertyOp31
 70
     1
102
RTVSPropertyOp32
 70
     1
  0
XRECORD
  5
3E0
102
{ACAD_REACTORS
330
3DF
102
}
330
3DF
100
AcDbXrecord
280
     1
102
RTVSPropertyOp0
 70
     1
102
RTVSPropertyOp1
 70
     1
102
RTVSPropertyOp2
 70
     1
102
RTVSPropertyOp3
 70
     1
102
RTVSPropertyOp4
 70
     1
102
RTVSPropertyOp5
 70
     1
102
RTVSPropertyOp6
 70
     1
102
RTVSPropertyOp7
 70
     1
102
RTVSPropertyOp8
 70
     1
102
RTVSPropertyOp9
 70
     1
102
RTVSPropertyOp10
 70
     1
102
RTVSPropertyOp11
 70
     1
102
RTVSPropertyOp12
 70
     1
102
RTVSPropertyOp13
 70
     1
102
RTVSPropertyOp14
 70
     1
102
RTVSPropertyOp15
 70
     1
102
RTVSPropertyOp16
 70
     1
102
RTVSPropertyOp17
 70
     1
102
RTVSPropertyOp18
 70
     1
102
RTVSPropertyOp19
 70
     1
102
RTVSPropertyOp20
 70
     1
102
RTVSPropertyOp21
 70
     1
102
RTVSPropertyOp22
 70
     1
102
RTVSPropertyOp23
 70
     1
102
RTVSPropertyOp24
 70
     1
102
RTVSPropertyOp25
 70
     1
102
RTVSPropertyOp26
 70
     1
102
RTVSPropertyOp27
 70
     1
102
RTVSPropertyOp28
 70
     1
102
RTVSPropertyOp29
 70
     1
102
RTVSPropertyOp30
 70
     1
102
RTVSPropertyOp31
 70
     1
102
RTVSPropertyOp32
 70
     1
  0
XRECORD
  5
3E2
102
{ACAD_REACTORS
330
3E1
102
}
330
3E1
100
AcDbXrecord
280
     1
102
RTVSPropertyOp0
 70
     1
102
RTVSPropertyOp1
 70
     1
102
RTVSPropertyOp2
 70
     1
102
RTVSPropertyOp3
 70
     1
102
RTVSPropertyOp4
 70
     1
102
RTVSPropertyOp5
 70
     1
102
RTVSPropertyOp6
 70
     1
102
RTVSPropertyOp7
 70
     1
102
RTVSPropertyOp8
 70
     1
102
RTVSPropertyOp9
 70
     1
102
RTVSPropertyOp10
 70
     1
102
RTVSPropertyOp11
 70
     1
102
RTVSPropertyOp12
 70
     1
102
RTVSPropertyOp13
 70
     1
102
RTVSPropertyOp14
 70
     1
102
RTVSPropertyOp15
 70
     1
102
RTVSPropertyOp16
 70
     1
102
RTVSPropertyOp17
 70
     1
102
RTVSPropertyOp18
 70
     1
102
RTVSPropertyOp19
 70
     1
102
RTVSPropertyOp20
 70
     1
102
RTVSPropertyOp21
 70
     1
102
RTVSPropertyOp22
 70
     1
102
RTVSPropertyOp23
 70
     1
102
RTVSPropertyOp24
 70
     1
102
RTVSPropertyOp25
 70
     1
102
RTVSPropertyOp26
 70
     1
102
RTVSPropertyOp27
 70
     1
102
RTVSPropertyOp28
 70
     1
102
RTVSPropertyOp29
 70
     1
102
RTVSPropertyOp30
 70
     1
102
RTVSPropertyOp31
 70
     1
102
RTVSPropertyOp32
 70
     1
  0
XRECORD
  5
3F6
102
{ACAD_REACTORS
330
3F5
102
}
330
3F5
100
AcDbXrecord
280
     1
102
RTVSPropertyOp0
 70
     1
102
RTVSPropertyOp1
 70
     1
102
RTVSPropertyOp2
 70
     1
102
RTVSPropertyOp3
 70
     1
102
RTVSPropertyOp4
 70
     1
102
RTVSPropertyOp5
 70
     1
102
RTVSPropertyOp6
 70
     1
102
RTVSPropertyOp7
 70
     1
102
RTVSPropertyOp8
 70
     1
102
RTVSPropertyOp9
 70
     1
102
RTVSPropertyOp10
 70
     1
102
RTVSPropertyOp11
 70
     1
102
RTVSPropertyOp12
 70
     1
102
RTVSPropertyOp13
 70
     1
102
RTVSPropertyOp14
 70
     1
102
RTVSPropertyOp15
 70
     1
102
RTVSPropertyOp16
 70
     1
102
RTVSPropertyOp17
 70
     1
102
RTVSPropertyOp18
 70
     1
102
RTVSPropertyOp19
 70
     1
102
RTVSPropertyOp20
 70
     1
102
RTVSPropertyOp21
 70
     1
102
RTVSPropertyOp22
 70
     1
102
RTVSPropertyOp23
 70
     1
102
RTVSPropertyOp24
 70
     1
102
RTVSPropertyOp25
 70
     1
102
RTVSPropertyOp26
 70
     1
102
RTVSPropertyOp27
 70
     1
102
RTVSPropertyOp28
 70
     1
102
RTVSPropertyOp29
 70
     1
102
RTVSPropertyOp30
 70
     1
102
RTVSPropertyOp31
 70
     1
102
RTVSPropertyOp32
 70
     1
  0
XRECORD
  5
3EC
102
{ACAD_REACTORS
330
3EB
102
}
330
3EB
100
AcDbXrecord
280
     1
102
RTVSPropertyOp0
 70
     1
102
RTVSPropertyOp1
 70
     1
102
RTVSPropertyOp2
 70
     1
102
RTVSPropertyOp3
 70
     1
102
RTVSPropertyOp4
 70
     1
102
RTVSPropertyOp5
 70
     1
102
RTVSPropertyOp6
 70
     1
102
RTVSPropertyOp7
 70
     1
102
RTVSPropertyOp8
 70
     1
102
RTVSPropertyOp9
 70
     1
102
RTVSPropertyOp10
 70
     1
102
RTVSPropertyOp11
 70
     1
102
RTVSPropertyOp12
 70
     1
102
RTVSPropertyOp13
 70
     1
102
RTVSPropertyOp14
 70
     1
102
RTVSPropertyOp15
 70
     1
102
RTVSPropertyOp16
 70
     1
102
RTVSPropertyOp17
 70
     1
102
RTVSPropertyOp18
 70
     1
102
RTVSPropertyOp19
 70
     1
102
RTVSPropertyOp20
 70
     1
102
RTVSPropertyOp21
 70
     1
102
RTVSPropertyOp22
 70
     1
102
RTVSPropertyOp23
 70
     1
102
RTVSPropertyOp24
 70
     1
102
RTVSPropertyOp25
 70
     1
102
RTVSPropertyOp26
 70
     1
102
RTVSPropertyOp27
 70
     1
102
RTVSPropertyOp28
 70
     1
102
RTVSPropertyOp29
 70
     1
102
RTVSPropertyOp30
 70
     1
102
RTVSPropertyOp31
 70
     1
102
RTVSPropertyOp32
 70
     1
  0
XRECORD
  5
3F4
102
{ACAD_REACTORS
330
3F3
102
}
330
3F3
100
AcDbXrecord
280
     1
102
RTVSPropertyOp0
 70
     1
102
RTVSPropertyOp1
 70
     1
102
RTVSPropertyOp2
 70
     1
102
RTVSPropertyOp3
 70
     1
102
RTVSPropertyOp4
 70
     1
102
RTVSPropertyOp5
 70
     1
102
RTVSPropertyOp6
 70
     1
102
RTVSPropertyOp7
 70
     1
102
RTVSPropertyOp8
 70
     1
102
RTVSPropertyOp9
 70
     1
102
RTVSPropertyOp10
 70
     1
102
RTVSPropertyOp11
 70
     1
102
RTVSPropertyOp12
 70
     1
102
RTVSPropertyOp13
 70
     1
102
RTVSPropertyOp14
 70
     1
102
RTVSPropertyOp15
 70
     1
102
RTVSPropertyOp16
 70
     1
102
RTVSPropertyOp17
 70
     1
102
RTVSPropertyOp18
 70
     1
102
RTVSPropertyOp19
 70
     1
102
RTVSPropertyOp20
 70
     1
102
RTVSPropertyOp21
 70
     1
102
RTVSPropertyOp22
 70
     1
102
RTVSPropertyOp23
 70
     1
102
RTVSPropertyOp24
 70
     1
102
RTVSPropertyOp25
 70
     1
102
RTVSPropertyOp26
 70
     1
102
RTVSPropertyOp27
 70
     1
102
RTVSPropertyOp28
 70
     1
102
RTVSPropertyOp29
 70
     1
102
RTVSPropertyOp30
 70
     1
102
RTVSPropertyOp31
 70
     1
102
RTVSPropertyOp32
 70
     1
  0
ENDSEC
  0
EOF
